Начать новую тему Ответить на тему
Статистика раздачи
Размер: 310.01 МБ | Добавлен: 26 июн 2020, 17:00 | Скачали: 0
Сидеров: 0  [0 байт/сек]    Личеров: 0  [0 байт/сек]
Пред. тема | След. тема 

Автор
Сообщение

СообщениеДобавлено: 26 июн 2020, 17:00 

Ответить с цитатой 

To Avoid / Voyage Into The Past!
Жанр: EBM, Electro, Industrial
Страна-производитель диска: Germany
Год издания: 2005
Издатель (лейбл): Dark Wings / SubZero / SPV GmbH
Номер по каталогу: DW 0022-2 / SPV 085-46292
Формат: CD, Album
Аудиокодек: FLAC (*.flac)
Тип рипа: image+.cue
Битрейт аудио: lossless
Продолжительность: 0:41:48.15
Источник (релизер): Физический носитель (Собственный рип с оригинала)
Наличие сканов в содержимом раздачи: да
Треклист:
01. Intro [1:32]
02. Cyberworld [4:29]
03. Last Resort - Suicide [2:50]
04. Feel It [5:02]
05. Hypocrisy [3:50]
06. Instrument Of The Death [3:41]
07. Deep [4:19]
08. Small Wheel [4:27]
09. Sowing The Seeds Of Violence [3:56]
10. Strange Day [4:31]
11. Wake Up [3:11]
Код:
Exact Audio Copy V1.0 beta 3 from 29. August 2011
EAC extraction logfile from 24. April 2012, 21:46
To Avoid / Voyage Into The Past!
Used drive  : PLEXTOR BDDVDR PX-B320SA   Adapter: 0  ID: 2
Read mode               : Secure
Utilize accurate stream : Yes
Defeat audio cache      : Yes
Make use of C2 pointers : No
Read offset correction                      : 6
Overread into Lead-In and Lead-Out          : No
Fill up missing offset samples with silence : Yes
Delete leading and trailing silent blocks   : No
Null samples used in CRC calculations       : Yes
Used interface                              : Native Win32 interface for Win NT & 2000
Used output format              : User Defined Encoder
Selected bitrate                : 128 kBit/s
Quality                         : High
Add ID3 tag                     : No
Command line compressor         : C:\Program Files (x86)\FLAC\flac.exe
Additional command line options : -V -8 -T "Date=%year%" -T "Genre=%genre%" %source%
TOC of the extracted CD
     Track |   Start  |  Length  | Start sector | End sector
    ---------------------------------------------------------
        1  |  0:00.00 |  1:32.17 |         0    |     6916
        2  |  1:32.17 |  4:28.55 |      6917    |    27071
        3  |  6:00.72 |  2:50.24 |     27072    |    39845
        4  |  8:51.21 |  5:01.72 |     39846    |    62492
        5  | 13:53.18 |  3:49.45 |     62493    |    79712
        6  | 17:42.63 |  3:41.18 |     79713    |    96305
        7  | 21:24.06 |  4:19.01 |     96306    |   115731
        8  | 25:43.07 |  4:27.30 |    115732    |   135786
        9  | 30:10.37 |  3:55.53 |    135787    |   153464
       10  | 34:06.15 |  4:30.61 |    153465    |   173775
       11  | 38:37.01 |  3:11.14 |    173776    |   188114
Range status and errors
Selected range
     Filename D:\To Avoid - Voyage Into The Past! (2005)\To Avoid - Voyage Into The Past!.wav
     Peak level 100.0 %
     Extraction speed 5.1 X
     Range quality 100.0 %
     Test CRC 271C65C1
     Copy CRC 271C65C1
     Copy OK
No errors occurred
AccurateRip summary
Track  1  not present in database
Track  2  not present in database
Track  3  not present in database
Track  4  not present in database
Track  5  not present in database
Track  6  not present in database
Track  7  not present in database
Track  8  not present in database
Track  9  not present in database
Track 10  not present in database
Track 11  not present in database
None of the tracks are present in the AccurateRip database
End of status report
==== Log checksum CD8334E4F3E56B0AD3FFE6810F085EB18F9939E981F4CDC4B61A55C97E4DE5CC ====
Правила, инструкции, FAQ!!!
Торрент  Добавлен [26 июн 2020, 17:00] Скачать торрент Магнет ссылка
Скачать торрент
[ Размер 13.11 КБ / Просмотров 3 ]

Статус
Проверен 
 
Размер  310.01 МБ
Приватный: Нет (DHT включён)
.torrent скачан  0
 


     Отправить личное сообщение
   
Страница 1 из 1
Показать сообщения за:  Поле сортировки  
Начать новую тему Ответить на тему


Сейчас этот форум просматривают: нет зарегистрированных пользователей и гости: 0


Вы не можете начинать темы
Вы не можете отвечать на сообщения
Вы не можете редактировать свои сообщения
Вы не можете удалять свои сообщения
Вы не можете добавлять вложения

Перейти:  
cron