Начать новую тему Ответить на тему
Статистика раздачи
Размер: 356.53 МБ | Добавлен: 26 июн 2020, 16:54 | Скачали: 0
Сидеров: 0  [0 байт/сек]    Личеров: 0  [0 байт/сек]
Пред. тема | След. тема 

Автор
Сообщение

СообщениеДобавлено: 26 июн 2020, 16:54 

Ответить с цитатой 

To Avoid / Passion And Pain (EP)
Жанр: EBM, Electro, Industrial
Страна-производитель диска: Germany
Год издания: 2009
Издатель (лейбл): TAMB - MEDIA
Номер по каталогу: TAMB-DPCD01
Формат: CD, EP
Аудиокодек: FLAC (*.flac)
Тип рипа: image+.cue
Битрейт аудио: lossless
Продолжительность: 0:44:14.25
Источник (релизер): Физический носитель (Собственный рип с оригинала)
Наличие сканов в содержимом раздачи: да
Треклист:
01. GET (German Electronic Terrorists) [2:45]
02. Lying Eyes [4:19]
03. Passion And Pain [5:04]
04. Do You Know [3:35]
05. War Nurse [4:01]
06. Instrument Of The Death (Re-Work 2009) [3:44]
07. Passion And Pain (CrucifiEd[it] By Amnistia) [4:46]
08. Against The Current (Necroremix By Necro Facility) [3:26]
09. Passion And Pain (RMX By Cephalgy) [3:42]
10. Against The Current (Violated By Second Disease) [4:43]
11. Passion And Pain (Remake By Stin Scatzor) [4:10]
Код:
Exact Audio Copy V1.0 beta 3 from 29. August 2011
EAC extraction logfile from 7. July 2012, 19:04
To Avoid / Passion And Pain
Used drive  : PLEXTOR BDDVDR PX-B320SA   Adapter: 6  ID: 1
Read mode               : Secure
Utilize accurate stream : Yes
Defeat audio cache      : Yes
Make use of C2 pointers : No
Read offset correction                      : 6
Overread into Lead-In and Lead-Out          : No
Fill up missing offset samples with silence : Yes
Delete leading and trailing silent blocks   : No
Null samples used in CRC calculations       : Yes
Used interface                              : Installed external ASPI interface
Used output format              : User Defined Encoder
Selected bitrate                : 128 kBit/s
Quality                         : High
Add ID3 tag                     : No
Command line compressor         : C:\Program Files (x86)\FLAC\flac.exe
Additional command line options : -V -8 -T "Date=%year%" -T "Genre=%genre%" %source%
TOC of the extracted CD
     Track |   Start  |  Length  | Start sector | End sector
    ---------------------------------------------------------
        1  |  0:00.00 |  2:44.35 |         0    |    12334
        2  |  2:44.35 |  4:19.06 |     12335    |    31765
        3  |  7:03.41 |  5:03.66 |     31766    |    54556
        4  | 12:07.32 |  3:35.11 |     54557    |    70692
        5  | 15:42.43 |  4:01.06 |     70693    |    88773
        6  | 19:43.49 |  3:43.41 |     88774    |   105539
        7  | 23:27.15 |  4:46.13 |    105540    |   127002
        8  | 28:13.28 |  3:26.12 |    127003    |   142464
        9  | 31:39.40 |  3:42.25 |    142465    |   159139
       10  | 35:21.65 |  4:42.35 |    159140    |   180324
       11  | 40:04.25 |  4:10.00 |    180325    |   199074
Range status and errors
Selected range
     Filename D:\To Avoid - Passion And Pain E.P. (2009)\To Avoid - Passion And Pain.wav
     Peak level 100.0 %
     Extraction speed 6.8 X
     Range quality 99.9 %
     Test CRC CB268D3B
     Copy CRC CB268D3B
     Copy OK
No errors occurred
AccurateRip summary
Track  1  not present in database
Track  2  not present in database
Track  3  not present in database
Track  4  not present in database
Track  5  not present in database
Track  6  not present in database
Track  7  not present in database
Track  8  not present in database
Track  9  not present in database
Track 10  not present in database
Track 11  not present in database
None of the tracks are present in the AccurateRip database
End of status report
==== Log checksum E359FF4FC9891014A3E782416A813EB296BE8C1CE31B9DE921750A1AAA52B39E ====
Правила, инструкции, FAQ!!!
Торрент  Добавлен [26 июн 2020, 16:54] Скачать торрент Магнет ссылка
Скачать торрент
[ Размер 14.87 КБ / Просмотров 4 ]

Статус
Проверен 
 
Размер  356.53 МБ
Приватный: Нет (DHT включён)
.torrent скачан  0
 


     Отправить личное сообщение
   
Страница 1 из 1
Показать сообщения за:  Поле сортировки  
Начать новую тему Ответить на тему


Сейчас этот форум просматривают: нет зарегистрированных пользователей и гости: 0


Вы не можете начинать темы
Вы не можете отвечать на сообщения
Вы не можете редактировать свои сообщения
Вы не можете удалять свои сообщения
Вы не можете добавлять вложения

Перейти:  
cron