Начать новую тему Ответить на тему
Статистика раздачи
Размер: 359.2 МБ | Добавлен: 26 июн 2020, 17:31 | Скачали: 0
Сидеров: 0  [0 байт/сек]    Личеров: 0  [0 байт/сек]
Пред. тема | След. тема 

Автор
Сообщение

СообщениеДобавлено: 26 июн 2020, 17:31 

Ответить с цитатой 

Angelspit - Hideous And Perfect
Жанр: EBM, Electro, Industrial
Год выпуска диска: 2009
Производитель диска: AU
Аудио кодек: FLAC
Тип рипа: tracks+.cue
Битрейт аудио: lossless
Продолжительность: 47:24
Источник: What.CD
Треклист:
01. Ditch The Rest (03:51)
02. Cold Hard Cash (04:05)
03. Fink (03:43)
04. Fuck The Revolution (03:54)
05. On Earth (01:14)
06. Making Money (04:37)
07. Sleep Now (04:33)
08. Channel Hell (03:59)
09. Let Them Eat Distortion (03:35)
10. Hyperlust (04:20)
11. Princess Chaos (03:35)
12. As It Is In Heaven (05:58)

Внимание! Все выложенные здесь материалы предоставлены исключительно в целях ознакомления! После ознакомления с материалами Вы обязаны их удалить! Если Вы хотите пользоваться данным материалом в дальнейшем – Вы должны приобрести лицензионный диск.
Лучшая ваша благодарность за раздачу - отзывы об альбоме!
Электро-индастриал группа из Сиднея (Австралия). Была создана в 2004 фронт-вокалисткой Амелией «Destroyx» Тан и клавишником синтезатора Карлом «ZooG» Лермонтом. Первый студийный альбом Krankhaus выпущен в 2006-м. Следующий альбом Blood Death Ivory вышел 8 июля 2008 года. Музыка Angelspit комбинирует в себе уникальные и стилистические элементы хоррора, готики, панка и электронной музыки. Эта парочка называют себя «A riot girl with a vocoder and a cyberpunk with a distortion pedal». Злые четкие ритмы, механические гитары, чистое, свежее звучание, злой вокал (в основном женский) с песнями на тему ужасов, страшных медицинских экспериментов и гротеска - все это при прослушивании создает ощущение шлепка по лицу от полной неожиданности.
Дискография:
2004 - Nurse Grenade (remastered and professionally pressed February 2007);
2007 - Krankhaus;
2007 - Krankhaus Special Edition (Shipped with «Surgically Atoned» remix disc);
2008 - Blood Death Ivory;
2009 - Black Kingdom Red Kingdom (Blood Death Ivory Remix CD);
2009 - Hideous And Perfect.
Источник
Код:
Exact Audio Copy V0.99 prebeta 4 from 23. January 2008
EAC extraction logfile from 14. October 2009, 7:02
Angelspit / Hideous and Perfect
Used drive  : TSSTcorpCDDVDW SN-S082H   Adapter: 1  ID: 0
Read mode               : Secure
Utilize accurate stream : Yes
Defeat audio cache      : Yes
Make use of C2 pointers : No
Read offset correction                      : 6
Overread into Lead-In and Lead-Out          : No
Fill up missing offset samples with silence : Yes
Delete leading and trailing silent blocks   : No
Null samples used in CRC calculations       : Yes
Used interface                              : Native Win32 interface for Win NT & 2000
Gap handling                                : Appended to previous track
Used output format              : User Defined Encoder
Selected bitrate                : 192 kBit/s
Quality                         : High
Add ID3 tag                     : No
Command line compressor         : C:\Program Files\FLAC\flac.exe
Additional command line options : -V -8 -T "artist=%a" -T "title=%t" -T "album=%g" -T "date=%y" -T "tracknumber=%n" -T "genre=%m" %s
TOC of the extracted CD
     Track |   Start  |  Length  | Start sector | End sector
    ---------------------------------------------------------
        1  |  0:00.00 |  3:50.70 |         0    |    17319
        2  |  3:50.70 |  4:05.22 |     17320    |    35716
        3  |  7:56.17 |  3:43.13 |     35717    |    52454
        4  | 11:39.30 |  3:54.16 |     52455    |    70020
        5  | 15:33.46 |  1:14.26 |     70021    |    75596
        6  | 16:47.72 |  4:37.00 |     75597    |    96371
        7  | 21:24.72 |  4:32.39 |     96372    |   116810
        8  | 25:57.36 |  3:59.15 |    116811    |   134750
        9  | 29:56.51 |  3:35.19 |    134751    |   150894
       10  | 33:31.70 |  4:19.52 |    150895    |   170371
       11  | 37:51.47 |  3:34.35 |    170372    |   186456
       12  | 41:26.07 |  5:57.74 |    186457    |   213305
Track  1
     Filename C:\Aspit\01 - Angelspit - Track01.wav
     Pre-gap length  0:00:02.00
     Peak level 100.0 %
     Track quality 100.0 %
     Test CRC B47DD292
     Copy CRC B47DD292
     Track not present in AccurateRip database
     Copy OK
Track  2
     Filename C:\Aspit\02 - Angelspit - Track02.wav
     Peak level 100.0 %
     Track quality 100.0 %
     Test CRC 5E23E1CF
     Copy CRC 5E23E1CF
     Track not present in AccurateRip database
     Copy OK
Track  3
     Filename C:\Aspit\03 - Angelspit - Track03.wav
     Peak level 100.0 %
     Track quality 100.0 %
     Test CRC FD32050E
     Copy CRC FD32050E
     Track not present in AccurateRip database
     Copy OK
Track  4
     Filename C:\Aspit\04 - Angelspit - Track04.wav
     Peak level 100.0 %
     Track quality 100.0 %
     Test CRC D55970A5
     Copy CRC D55970A5
     Track not present in AccurateRip database
     Copy OK
Track  5
     Filename C:\Aspit\05 - Angelspit - Track05.wav
     Peak level 98.9 %
     Track quality 100.0 %
     Test CRC 4EB73A05
     Copy CRC 4EB73A05
     Track not present in AccurateRip database
     Copy OK
Track  6
     Filename C:\Aspit\06 - Angelspit - Track06.wav
     Peak level 100.0 %
     Track quality 100.0 %
     Test CRC 7E621D4C
     Copy CRC 7E621D4C
     Track not present in AccurateRip database
     Copy OK
Track  7
     Filename C:\Aspit\07 - Angelspit - Track07.wav
     Peak level 100.0 %
     Track quality 100.0 %
     Test CRC DB95B296
     Copy CRC DB95B296
     Track not present in AccurateRip database
     Copy OK
Track  8
     Filename C:\Aspit\08 - Angelspit - Track08.wav
     Peak level 100.0 %
     Track quality 100.0 %
     Test CRC 99E28E59
     Copy CRC 99E28E59
     Track not present in AccurateRip database
     Copy OK
Track  9
     Filename C:\Aspit\09 - Angelspit - Track09.wav
     Peak level 100.0 %
     Track quality 100.0 %
     Test CRC 24330A1C
     Copy CRC 24330A1C
     Track not present in AccurateRip database
     Copy OK
Track 10
     Filename C:\Aspit\10 - Angelspit - Track10.wav
     Peak level 99.8 %
     Track quality 100.0 %
     Test CRC 2357E558
     Copy CRC 2357E558
     Track not present in AccurateRip database
     Copy OK
Track 11
     Filename C:\Aspit\11 - Angelspit - Track11.wav
     Peak level 100.0 %
     Track quality 100.0 %
     Test CRC 579A2744
     Copy CRC 579A2744
     Track not present in AccurateRip database
     Copy OK
Track 12
     Filename C:\Aspit\12 - Angelspit - Track12.wav
     Peak level 100.0 %
     Track quality 99.9 %
     Test CRC BBF591BB
     Copy CRC BBF591BB
     Track not present in AccurateRip database
     Copy OK
None of the tracks are present in the AccurateRip database
No errors occurred
End of status report
Код:
REM GENRE Alternative
REM DATE 2009
REM DISCID A70B1C0C
REM COMMENT "ExactAudioCopy v0.99pb4"
PERFORMER "Angelspit"
TITLE "Hideous and Perfect"
FILE "01 - Angelspit - Track01.wav" WAVE
  TRACK 01 AUDIO
    TITLE "Track01"
    PERFORMER "Angelspit"
    INDEX 01 00:00:00
FILE "02 - Angelspit - Track02.wav" WAVE
  TRACK 02 AUDIO
    TITLE "Track02"
    PERFORMER "Angelspit"
    INDEX 01 00:00:00
FILE "03 - Angelspit - Track03.wav" WAVE
  TRACK 03 AUDIO
    TITLE "Track03"
    PERFORMER "Angelspit"
    INDEX 01 00:00:00
FILE "04 - Angelspit - Track04.wav" WAVE
  TRACK 04 AUDIO
    TITLE "Track04"
    PERFORMER "Angelspit"
    INDEX 01 00:00:00
FILE "05 - Angelspit - Track05.wav" WAVE
  TRACK 05 AUDIO
    TITLE "Track05"
    PERFORMER "Angelspit"
    INDEX 01 00:00:00
FILE "06 - Angelspit - Track06.wav" WAVE
  TRACK 06 AUDIO
    TITLE "Track06"
    PERFORMER "Angelspit"
    INDEX 01 00:00:00
FILE "07 - Angelspit - Track07.wav" WAVE
  TRACK 07 AUDIO
    TITLE "Track07"
    PERFORMER "Angelspit"
    INDEX 01 00:00:00
FILE "08 - Angelspit - Track08.wav" WAVE
  TRACK 08 AUDIO
    TITLE "Track08"
    PERFORMER "Angelspit"
    INDEX 01 00:00:00
FILE "09 - Angelspit - Track09.wav" WAVE
  TRACK 09 AUDIO
    TITLE "Track09"
    PERFORMER "Angelspit"
    INDEX 01 00:00:00
FILE "10 - Angelspit - Track10.wav" WAVE
  TRACK 10 AUDIO
    TITLE "Track10"
    PERFORMER "Angelspit"
    INDEX 01 00:00:00
FILE "11 - Angelspit - Track11.wav" WAVE
  TRACK 11 AUDIO
    TITLE "Track11"
    PERFORMER "Angelspit"
    INDEX 01 00:00:00
FILE "12 - Angelspit - Track12.wav" WAVE
  TRACK 12 AUDIO
    TITLE "Track12"
    PERFORMER "Angelspit"
    INDEX 01 00:00:00
Правила, инструкции, FAQ!!!
Торрент  Добавлен [26 июн 2020, 17:31] Скачать торрент Магнет ссылка
Скачать торрент
[ Размер 15.4 КБ / Просмотров 7 ]

Статус
Проверен 
 
Размер  359.2 МБ
Приватный: Нет (DHT включён)
.torrent скачан  0
 


     Отправить личное сообщение
   
Страница 1 из 1
Показать сообщения за:  Поле сортировки  
Начать новую тему Ответить на тему


Сейчас этот форум просматривают: нет зарегистрированных пользователей и гости: 0


Вы не можете начинать темы
Вы не можете отвечать на сообщения
Вы не можете редактировать свои сообщения
Вы не можете удалять свои сообщения
Вы не можете добавлять вложения

Перейти:  
cron