Начать новую тему Ответить на тему
Статистика раздачи
Размер: 353.77 МБ | Добавлен: 26 июн 2020, 17:19 | Скачали: 0
Сидеров: 0  [0 байт/сек]    Личеров: 0  [0 байт/сек]
Пред. тема | След. тема 

Автор
Сообщение

СообщениеДобавлено: 26 июн 2020, 17:19 

Ответить с цитатой 

Angelspit - Blood Death Ivory
Жанр: EBM, Electro, Industrial
Год выпуска диска: 2008
Производитель диска: AU
Аудио кодек: FLAC
Тип рипа: tracks+.cue
Битрейт аудио: lossless
Продолжительность: 44:59
Источник: What.CD
Треклист:
01. Grind (3:45)
02. Paint Hell Red (4:08)
03. Devilicious (3:59)
04. Skinny Little Bitch (4:03)
05. Red (3:59)
06. Kill Kitty (3:29)
07. Lust Worthy (4:26)
08. Shaved Monkey (3:27)
09. Girl Poison (4:08)
10. Homo-Machinery (4:49)
11. Jugular (4:39)
Внимание! Все выложенные здесь материалы предоставлены исключительно в целях ознакомления! После ознакомления с материалами Вы обязаны их удалить! Если Вы хотите пользоваться данным материалом в дальнейшем – Вы должны приобрести лицензионный диск.
Лучшая ваша благодарность за раздачу - отзывы об альбоме!

Электро-индастриал группа из Сиднея (Австралия). Была создана в 2004 фронт-вокалисткой Амелией «Destroyx» Тан и клавишником синтезатора Карлом «ZooG» Лермонтом. Первый студийный альбом Krankhaus выпущен в 2006-м. Следующий альбом Blood Death Ivory вышел 8 июля 2008 года. Музыка Angelspit комбинирует в себе уникальные и стилистические элементы хоррора, готики, панка и электронной музыки. Эта парочка называют себя «A riot girl with a vocoder and a cyberpunk with a distortion pedal». Злые четкие ритмы, механические гитары, чистое, свежее звучание, злой вокал (в основном женский) с песнями на тему ужасов, страшных медицинских экспериментов и гротеска - все это при прослушивании создает ощущение шлепка по лицу от полной неожиданности.
Дискография:
2004 - Nurse Grenade (remastered and professionally pressed February 2007);
2007 - Krankhaus;
2007 - Krankhaus Special Edition (Shipped with «Surgically Atoned» remix disc);
2008 - Blood Death Ivory;
2009 - Black Kingdom Red Kingdom (Blood Death Ivory Remix CD);
2009 - Hideous And Perfect.
Источник
Код:
Exact Audio Copy V0.99 prebeta 5 from 4. May 2009
EAC extraction logfile from 12. August 2009, 17:18
Angelspit / Blood Death Ivory
Used drive  : ATAPI   DVD A  DH20A4P   Adapter: 6  ID: 0
Read mode               : Secure
Utilize accurate stream : Yes
Defeat audio cache      : Yes
Make use of C2 pointers : No
Read offset correction                      : 6
Overread into Lead-In and Lead-Out          : No
Fill up missing offset samples with silence : Yes
Delete leading and trailing silent blocks   : No
Null samples used in CRC calculations       : Yes
Used interface                              : Native Win32 interface for Win NT & 2000
Gap handling                                : Appended to previous track
Used output format              : User Defined Encoder
Selected bitrate                : 320 kBit/s
Quality                         : High
Add ID3 tag                     : No
Command line compressor         : C:\Program Files (x86)\FLAC\flac.exe
Additional command line options : -V -8 -T "artist=%a" -T "title=%t" -T "album=%g" -T "date=%y" -T "tracknumber=%n" -T "genre=%m" %s
TOC of the extracted CD
     Track |   Start  |  Length  | Start sector | End sector
    ---------------------------------------------------------
        1  |  0:00.00 |  3:45.66 |         0    |    16940
        2  |  3:45.66 |  4:08.69 |     16941    |    35609
        3  |  7:54.60 |  3:59.60 |     35610    |    53594
        4  | 11:54.45 |  4:03.65 |     53595    |    71884
        5  | 15:58.35 |  3:59.68 |     71885    |    89877
        6  | 19:58.28 |  3:29.03 |     89878    |   105555
        7  | 23:27.31 |  4:26.13 |    105556    |   125518
        8  | 27:53.44 |  3:27.10 |    125519    |   141053
        9  | 31:20.54 |  4:08.59 |    141054    |   159712
       10  | 35:29.38 |  4:49.69 |    159713    |   181456
       11  | 40:19.32 |  4:39.33 |    181457    |   202414
Track  1
     Filename C:\Music\Angelspit - Blood Death Ivory [FLAC]\01 - Grind.wav
     Pre-gap length  0:00:02.00
     Peak level 97.7 %
     Track quality 100.0 %
     Test CRC A49781CF
     Copy CRC A49781CF
     Track not present in AccurateRip database
     Copy OK
Track  2
     Filename C:\Music\Angelspit - Blood Death Ivory [FLAC]\02 - Paint Hell Red.wav
     Peak level 97.7 %
     Track quality 100.0 %
     Test CRC E1760165
     Copy CRC E1760165
     Track not present in AccurateRip database
     Copy OK
Track  3
     Filename C:\Music\Angelspit - Blood Death Ivory [FLAC]\03 - Devilicious.wav
     Pre-gap length  0:00:00.03
     Peak level 97.7 %
     Track quality 100.0 %
     Test CRC 86F63AA4
     Copy CRC 86F63AA4
     Track not present in AccurateRip database
     Copy OK
Track  4
     Filename C:\Music\Angelspit - Blood Death Ivory [FLAC]\04 - Skinny Little Bitch.wav
     Pre-gap length  0:00:00.05
     Peak level 97.7 %
     Track quality 100.0 %
     Test CRC FF32AEE8
     Copy CRC FF32AEE8
     Track not present in AccurateRip database
     Copy OK
Track  5
     Filename C:\Music\Angelspit - Blood Death Ivory [FLAC]\05 - Red.wav
     Peak level 97.7 %
     Track quality 100.0 %
     Test CRC CF07F238
     Copy CRC CF07F238
     Track not present in AccurateRip database
     Copy OK
Track  6
     Filename C:\Music\Angelspit - Blood Death Ivory [FLAC]\06 - Kill Kitty.wav
     Peak level 97.7 %
     Track quality 100.0 %
     Test CRC F35DA3F4
     Copy CRC F35DA3F4
     Track not present in AccurateRip database
     Copy OK
Track  7
     Filename C:\Music\Angelspit - Blood Death Ivory [FLAC]\07 - Lust Worthy.wav
     Peak level 97.7 %
     Track quality 100.0 %
     Test CRC 101A3FEF
     Copy CRC 101A3FEF
     Track not present in AccurateRip database
     Copy OK
Track  8
     Filename C:\Music\Angelspit - Blood Death Ivory [FLAC]\08 - Shaved Monkey.wav
     Peak level 97.7 %
     Track quality 100.0 %
     Test CRC AEE4C845
     Copy CRC AEE4C845
     Track not present in AccurateRip database
     Copy OK
Track  9
     Filename C:\Music\Angelspit - Blood Death Ivory [FLAC]\09 - Girl Poison.wav
     Pre-gap length  0:00:00.04
     Peak level 97.7 %
     Track quality 100.0 %
     Test CRC 8BCD5D9D
     Copy CRC 8BCD5D9D
     Track not present in AccurateRip database
     Copy OK
Track 10
     Filename C:\Music\Angelspit - Blood Death Ivory [FLAC]\10 - Homo-Machinery.wav
     Peak level 97.7 %
     Track quality 100.0 %
     Test CRC 93A68500
     Copy CRC 93A68500
     Track not present in AccurateRip database
     Copy OK
Track 11
     Filename C:\Music\Angelspit - Blood Death Ivory [FLAC]\11 - Jugular.wav
     Peak level 97.7 %
     Track quality 100.0 %
     Test CRC 004E1125
     Copy CRC 004E1125
     Track not present in AccurateRip database
     Copy OK
None of the tracks are present in the AccurateRip database
No errors occurred
End of status report
Код:
REM GENRE Industrial
REM DATE 2008
REM DISCID 820A8A0B
REM COMMENT "ExactAudioCopy v0.99pb5"
PERFORMER "Angelspit"
TITLE "Blood Death Ivory"
FILE "\01 - Grind.wav" WAVE
  TRACK 01 AUDIO
    TITLE "Grind"
    PERFORMER "Angelspit"
    INDEX 01 00:00:00
FILE "\02 - Paint Hell Red.wav" WAVE
  TRACK 02 AUDIO
    TITLE "Paint Hell Red"
    PERFORMER "Angelspit"
    INDEX 01 00:00:00
  TRACK 03 AUDIO
    TITLE "Devilicious"
    PERFORMER "Angelspit"
    INDEX 00 04:08:66
FILE "\03 - Devilicious.wav" WAVE
    INDEX 01 00:00:00
  TRACK 04 AUDIO
    TITLE "Skinny Little Bitch"
    PERFORMER "Angelspit"
    INDEX 00 03:59:55
FILE "\04 - Skinny Little Bitch.wav" WAVE
    INDEX 01 00:00:00
FILE "\05 - Red.wav" WAVE
  TRACK 05 AUDIO
    TITLE "Red"
    PERFORMER "Angelspit"
    INDEX 01 00:00:00
FILE "\06 - Kill Kitty.wav" WAVE
  TRACK 06 AUDIO
    TITLE "Kill Kitty"
    PERFORMER "Angelspit"
    INDEX 01 00:00:00
FILE "\07 - Lust Worthy.wav" WAVE
  TRACK 07 AUDIO
    TITLE "Lust Worthy"
    PERFORMER "Angelspit"
    INDEX 01 00:00:00
FILE "\08 - Shaved Monkey.wav" WAVE
  TRACK 08 AUDIO
    TITLE "Shaved Monkey"
    PERFORMER "Angelspit"
    INDEX 01 00:00:00
  TRACK 09 AUDIO
    TITLE "Girl Poison"
    PERFORMER "Angelspit"
    INDEX 00 03:27:06
FILE "\09 - Girl Poison.wav" WAVE
    INDEX 01 00:00:00
FILE "\10 - Homo-Machinery.wav" WAVE
  TRACK 10 AUDIO
    TITLE "Homo-Machinery"
    PERFORMER "Angelspit"
    INDEX 01 00:00:00
FILE "\11 - Jugular.wav" WAVE
  TRACK 11 AUDIO
    TITLE "Jugular"
    PERFORMER "Angelspit"
    INDEX 01 00:00:00
Правила, инструкции, FAQ!!!
Торрент  Добавлен [26 июн 2020, 17:19] Скачать торрент Магнет ссылка
Скачать торрент
[ Размер 14.93 КБ / Просмотров 9 ]

Статус
Проверен 
 
Размер  353.77 МБ
Приватный: Нет (DHT включён)
.torrent скачан  0
 


     Отправить личное сообщение
   
Страница 1 из 1
Показать сообщения за:  Поле сортировки  
Начать новую тему Ответить на тему


Сейчас этот форум просматривают: нет зарегистрированных пользователей и гости: 0


Вы не можете начинать темы
Вы не можете отвечать на сообщения
Вы не можете редактировать свои сообщения
Вы не можете удалять свои сообщения
Вы не можете добавлять вложения

Перейти:  
cron