Начать новую тему Ответить на тему
Статистика раздачи
Размер: 438.73 МБ | Добавлен: 26 июн 2020, 16:58 | Скачали: 0
Сидеров: 0  [0 байт/сек]    Личеров: 0  [0 байт/сек]
Пред. тема | След. тема 

Автор
Сообщение

СообщениеДобавлено: 26 июн 2020, 16:58 

Ответить с цитатой 

Allied Vision - MMBO (Man Must Be Overcome)
Жанр: EBM, Electro, Industrial
Год выпуска диска: 2001
Производитель диска: Intracraneal Possession, Spain
Аудио кодек: FLAC
Тип рипа: image+.cue
Битрейт аудио: lossless
Продолжительность: 1:03:03.58
Треклист:
01. Transition 5:06
02. Ghosts Behind Hate 6:21
03. Confession Of Dementia 5:48
04. Embodied Screw 6:11
05. Blasphemous 6:19
06. Back To Ashes 6:21
07. Symbolic Schism 7:13
08. Revolted Generator 6:08
09. Last Wave 6:43
10. Hidden 6:48
Доп. информация: Allied Vision - испанский музыкант-одиночка Oscar Storm.
CD из личной коллекции.
Альбом Allied Vision - "Unburied" тут (Спасибо нашему коллеге - Sigma957)
Exact Audio Copy V0.99 prebeta 5 from 4. May 2009
Отчёт EAC об извлечении, выполненном 23. августа 2010, 21:09
Allied Vision / Man Must Be Overcome
Дисковод: TSSTcorpCDDVDW TS-L632H Adapter: 0 ID: 0
Режим чтения : Достоверность
Использование точного потока : Да
Отключение кэша аудио : Да
Использование указателей C2 : Нет
Коррекция смещения при чтении : 6
Способность читать области Lead-in и Lead-out : Нет
Заполнение пропущенных сэмплов тишиной : Да
Удаление блоков с тишиной в начале и конце : Нет
При вычислениях CRC использовались нулевые сэмплы : Да
Интерфейс : Встроенный Win32-интерфейс для Win NT/2000
Выходной формат : Пользовательский кодировщик
Выбранный битрейт : 1024 kBit/s
Качество : Высокий
Добавление ID3-тэга : Нет
Утилита сжатия : C:\Program Files\Exact Audio Copy\FLAC\FLAC.EXE
Дополнительные параметры : -6 -V -T "ARTIST=%a" -T "TITLE=%t" -T "ALBUM=%g" -T "DATE=%y" -T "TRACKNUMBER=%n" -T "GENRE=%m" -T "COMMENT=%e" %s -o %d
TOC извлечённого CD
Трек | Старт | Длительность | Начальный сектор | Конечный сектор
---------------------------------------------------------------------
1 | 0:00.00 | 5:06.58 | 0 | 23007
2 | 5:06.58 | 6:21.02 | 23008 | 51584
3 | 11:27.60 | 5:48.34 | 51585 | 77718
4 | 17:16.19 | 6:11.64 | 77719 | 105607
5 | 23:28.08 | 6:19.08 | 105608 | 134040
6 | 29:47.16 | 6:21.73 | 134041 | 162688
7 | 36:09.14 | 7:13.45 | 162689 | 195208
8 | 43:22.59 | 6:08.48 | 195209 | 222856
9 | 49:31.32 | 6:43.42 | 222857 | 253123
10 | 56:14.74 | 6:48.59 | 253124 | 283782
Характеристики диапазона извлечения и сообщения об ошибках
Выбранный диапазон
Имя файла C:\Users\Алексей\Desktop\iPOD\Allied Vision - Man Must Be Overcome.wav
Пиковый уровень 100.0 %
Качество диапазона 99.9 %
CRC теста E6696721
CRC копии 6C8842D4
Копирование... OK
Ошибок не произошло
AccurateRip: сводка
Трек 1 точность не определена (достоверность 1) [A7620087], AccurateRip вернул [3B87A6BF]
Трек 2 точность не определена (достоверность 1) [49CCC435], AccurateRip вернул [19836115]
Трек 3 точность не определена (достоверность 1) [4989CF75], AccurateRip вернул [905EB53D]
Трек 4 точность не определена (достоверность 1) [742D862C], AccurateRip вернул [37A355FD]
Трек 5 точность не определена (достоверность 1) [3C52D809], AccurateRip вернул [950BD64D]
Трек 6 точность не определена (достоверность 1) [BA741E74], AccurateRip вернул [3F028FE0]
Трек 7 точность не определена (достоверность 1) [285B4F33], AccurateRip вернул [2DC86C72]
Трек 8 точность не определена (достоверность 1) [53A12151], AccurateRip вернул [D77181CB]
Трек 9 точность не определена (достоверность 1) [D994453E], AccurateRip вернул [A7949264]
Трек 10 точность не определена (достоверность 1) [5431DCD6], AccurateRip вернул [3CCFA10C]
Ни один трек не прошёл проверки на точность
В вашей базе может быть иной вариант штамповки диска
Конец отчёта
REM GENRE Industrial
REM DATE 2001
REM DISCID 8E0EC70A
REM COMMENT "ExactAudioCopy v0.99pb5"
PERFORMER "Allied Vision"
TITLE "Man Must Be Overcome"
FILE "Allied Vision - Man Must Be Overcome.flac" WAVE
TRACK 01 AUDIO
TITLE "Transition"
PERFORMER "Allied Vision"
INDEX 01 00:00:00
TRACK 02 AUDIO
TITLE "Ghosts behind hate"
PERFORMER "Allied Vision"
INDEX 01 05:06:58
TRACK 03 AUDIO
TITLE "Confession of dementia"
PERFORMER "Allied Vision"
INDEX 01 11:27:60
TRACK 04 AUDIO
TITLE "Embodied screw"
PERFORMER "Allied Vision"
INDEX 01 17:16:19
TRACK 05 AUDIO
TITLE "Blasphemous"
PERFORMER "Allied Vision"
INDEX 01 23:28:08
TRACK 06 AUDIO
TITLE "Back to ashes"
PERFORMER "Allied Vision"
INDEX 01 29:47:16
TRACK 07 AUDIO
TITLE "Symbolic schism"
PERFORMER "Allied Vision"
INDEX 01 36:09:14
TRACK 08 AUDIO
TITLE "Revolted generator"
PERFORMER "Allied Vision"
INDEX 01 43:22:59
TRACK 09 AUDIO
TITLE "Last wave"
PERFORMER "Allied Vision"
INDEX 01 49:31:32
TRACK 10 AUDIO
TITLE "Hidden"
PERFORMER "Allied Vision"
INDEX 01 56:14:74
Правила, инструкции, FAQ!!!
Торрент  Добавлен [26 июн 2020, 16:58] Скачать торрент Магнет ссылка
Скачать торрент
[ Размер 17.82 КБ / Просмотров 4 ]

Статус
Проверен 
 
Размер  438.73 МБ
Приватный: Нет (DHT включён)
.torrent скачан  0
 


     Отправить личное сообщение
   
Страница 1 из 1
Показать сообщения за:  Поле сортировки  
Начать новую тему Ответить на тему


Сейчас этот форум просматривают: нет зарегистрированных пользователей и гости: 0


Вы не можете начинать темы
Вы не можете отвечать на сообщения
Вы не можете редактировать свои сообщения
Вы не можете удалять свои сообщения
Вы не можете добавлять вложения

Перейти:  
cron