Начать новую тему Ответить на тему
Статистика раздачи
Размер: 606.63 МБ | Добавлен: 26 июн 2020, 17:25 | Скачали: 0
Сидеров: 1  [0 байт/сек]    Личеров: 0  [0 байт/сек]
Пред. тема | След. тема 

Автор
Сообщение

СообщениеДобавлено: 26 июн 2020, 17:25 

Ответить с цитатой 

https://fastpic.ru/view/69/2015/0716/191f9d62d255fe67562848d699618d9d.jpg.html
Aktivehate - In Terrorem

Жанр: EBM / Electro / Industrial
Страна-производитель диска: Hungary
Год издания диска: 2010
Издатель (лейбл): Advoxya
Номер по каталогу: AD-HUN-40-CD
Аудио кодек: FLAC (*.flac)
Тип рипа: tracks+.cue
Битрейт аудио: lossless
Продолжительность: 01:13:58
Источник (релизер): Свой CD
Наличие сканов в содержимом раздачи: да
Aktivehate - детище музыканта под псевдонимом ISK, также участвующий в таких проектах как PsychotekTrauma, VexXxeR, Anxiety Disorder и Lokomotiv.
Группа создана в 2007 году в Португалии для исследований различных сторон звука, проект Aktivehate развивался постепенно, в дальнейшем определяя себя как нечто большее чем просто вторичный сайд проект.
Эта музыка соприкасается с ненавистью, любовью, болью и удовольствием, она стремится коснуться всех спектров человеческих чувств.
Источник информации Last.fm
01. My Own God (05:06)
02. FU (05:13)
03. Sore Eyes (05:41)
04. Knee Deep (05:04)
05. Mixed Feelings (04:10)
06. Diseased (05:51)
07. Phantom (04:05)
08. 00h00 (06:05)
09. Sacramentum (02:31)
10. Play The Game (05:01)
11. Handful Of Nothing (04:14)
12. Trigger Happy (04:39)
13. Chemicals (05:09)
14. Bipolar (05:34)
15. Play The Game (Twilight Freakshow Monster And Servant Mix) (05:36)
Код:
Exact Audio Copy V0.99 prebeta 5 from 4. May 2009
EAC extraction logfile from 21. October 2010, 16:30
Aktivehate / In Terrorem
Used drive  : Optiarc DVD RW AD-5200A   Adapter: 2  ID: 0
Read mode               : Secure
Utilize accurate stream : Yes
Defeat audio cache      : Yes
Make use of C2 pointers : No
Read offset correction                      : 49
Overread into Lead-In and Lead-Out          : No
Fill up missing offset samples with silence : Yes
Delete leading and trailing silent blocks   : No
Null samples used in CRC calculations       : Yes
Used interface                              : Native Win32 interface for Win NT & 2000
Gap handling                                : Appended to previous track
Used output format              : User Defined Encoder
Selected bitrate                : 128 kBit/s
Quality                         : High
Add ID3 tag                     : No
Command line compressor         : I:\Program Files\Exact Audio Copy\Flac\flac.exe
Additional command line options : -8 -V -T "ARTIST=%a" -T "TITLE=%t" -T "ALBUM=%g" -T "DATE=%y" -T "TRACKNUMBER=%n" -T "GENRE=%m" -T "COMMENT=EAC FLAC -8" %s
TOC of the extracted CD
     Track |   Start  |  Length  | Start sector | End sector
    ---------------------------------------------------------
        1  |  0:00.00 |  5:06.18 |         0    |    22967
        2  |  5:06.18 |  5:13.14 |     22968    |    46456
        3  | 10:19.32 |  5:40.38 |     46457    |    71994
        4  | 15:59.70 |  5:04.22 |     71995    |    94816
        5  | 21:04.17 |  4:10.01 |     94817    |   113567
        6  | 25:14.18 |  5:51.00 |    113568    |   139892
        7  | 31:05.18 |  4:04.41 |    139893    |   158233
        8  | 35:09.59 |  6:04.66 |    158234    |   185599
        9  | 41:14.50 |  2:30.36 |    185600    |   196885
       10  | 43:45.11 |  5:00.47 |    196886    |   219432
       11  | 48:45.58 |  4:13.61 |    219433    |   238468
       12  | 52:59.44 |  4:38.37 |    238469    |   259355
       13  | 57:38.06 |  5:09.14 |    259356    |   282544
       14  | 62:47.20 |  5:34.26 |    282545    |   307620
       15  | 68:21.46 |  5:36.13 |    307621    |   332833
Track  1
     Filename I:\Documents and Settings\Admin\Рабочий стол\Aktive\01. Aktivehate - My Own God.wav
     Pre-gap length  0:00:02.00
     Peak level 94.4 %
     Track quality 100.0 %
     Test CRC 3C2D55BD
     Copy CRC 3C2D55BD
     Copy OK
Track  2
     Filename I:\Documents and Settings\Admin\Рабочий стол\Aktive\02. Aktivehate - Fu.wav
     Peak level 94.4 %
     Track quality 100.0 %
     Test CRC 4300BBA5
     Copy CRC 4300BBA5
     Copy OK
Track  3
     Filename I:\Documents and Settings\Admin\Рабочий стол\Aktive\03. Aktivehate - Sore Eyes.wav
     Peak level 94.4 %
     Track quality 100.0 %
     Test CRC 368E898F
     Copy CRC 368E898F
     Copy OK
Track  4
     Filename I:\Documents and Settings\Admin\Рабочий стол\Aktive\04. Aktivehate - Knee Deep.wav
     Peak level 94.4 %
     Track quality 100.0 %
     Test CRC 380DF201
     Copy CRC 380DF201
     Copy OK
Track  5
     Filename I:\Documents and Settings\Admin\Рабочий стол\Aktive\05. Aktivehate - Mixed Feelings.wav
     Peak level 94.4 %
     Track quality 100.0 %
     Test CRC 618E35A5
     Copy CRC 618E35A5
     Copy OK
Track  6
     Filename I:\Documents and Settings\Admin\Рабочий стол\Aktive\06. Aktivehate - Diseased.wav
     Peak level 94.4 %
     Track quality 99.9 %
     Test CRC E255525F
     Copy CRC E255525F
     Copy OK
Track  7
     Filename I:\Documents and Settings\Admin\Рабочий стол\Aktive\07. Aktivehate - Phantom.wav
     Peak level 94.4 %
     Track quality 100.0 %
     Test CRC AEB3C6B6
     Copy CRC AEB3C6B6
     Copy OK
Track  8
     Filename I:\Documents and Settings\Admin\Рабочий стол\Aktive\08. Aktivehate - 00H00.wav
     Peak level 94.0 %
     Track quality 100.0 %
     Test CRC B455F546
     Copy CRC B455F546
     Copy OK
Track  9
     Filename I:\Documents and Settings\Admin\Рабочий стол\Aktive\09. Aktivehate - Sacramentum.wav
     Peak level 94.4 %
     Track quality 100.0 %
     Test CRC 3274C46C
     Copy CRC 3274C46C
     Copy OK
Track 10
     Filename I:\Documents and Settings\Admin\Рабочий стол\Aktive\10. Aktivehate - Play the Game.wav
     Peak level 94.4 %
     Track quality 100.0 %
     Test CRC 716EE369
     Copy CRC 716EE369
     Copy OK
Track 11
     Filename I:\Documents and Settings\Admin\Рабочий стол\Aktive\11. Aktivehate - Handful Of Nothing.wav
     Peak level 94.4 %
     Track quality 100.0 %
     Test CRC 21C48674
     Copy CRC 21C48674
     Copy OK
Track 12
     Filename I:\Documents and Settings\Admin\Рабочий стол\Aktive\12. Aktivehate - Trigger Happy.wav
     Peak level 94.4 %
     Track quality 100.0 %
     Test CRC F0FD10F4
     Copy CRC F0FD10F4
     Copy OK
Track 13
     Filename I:\Documents and Settings\Admin\Рабочий стол\Aktive\13. Aktivehate - Chemicals.wav
     Peak level 94.4 %
     Track quality 100.0 %
     Test CRC 1DC71154
     Copy CRC 1DC71154
     Copy OK
Track 14
     Filename I:\Documents and Settings\Admin\Рабочий стол\Aktive\14. Aktivehate - Bipolar.wav
     Peak level 94.4 %
     Track quality 100.0 %
     Test CRC A6C15B2B
     Copy CRC A6C15B2B
     Copy OK
Track 15
     Filename I:\Documents and Settings\Admin\Рабочий стол\Aktive\15. Aktivehate - Play the Game (The Twilight Freakshow Monster and Servant Mix].wav
     Peak level 94.4 %
     Track quality 100.0 %
     Test CRC FF999EFB
     Copy CRC FF999EFB
     Copy OK
No errors occurred
End of status report

Код:
REM GENRE Industrial
REM DATE 2010
REM DISCID D011550F
REM COMMENT "ExactAudioCopy v0.99pb5"
PERFORMER "Aktivehate"
TITLE "In Terrorem"
FILE "01. Aktivehate - My Own God.wav" WAVE
  TRACK 01 AUDIO
    TITLE "My Own God"
    PERFORMER "Aktivehate"
    INDEX 01 00:00:00
FILE "02. Aktivehate - Fu.wav" WAVE
  TRACK 02 AUDIO
    TITLE "Fu"
    PERFORMER "Aktivehate"
    INDEX 01 00:00:00
FILE "03. Aktivehate - Sore Eyes.wav" WAVE
  TRACK 03 AUDIO
    TITLE "Sore Eyes"
    PERFORMER "Aktivehate"
    INDEX 01 00:00:00
FILE "04. Aktivehate - Knee Deep.wav" WAVE
  TRACK 04 AUDIO
    TITLE "Knee Deep"
    PERFORMER "Aktivehate"
    INDEX 01 00:00:00
FILE "05. Aktivehate - Mixed Feelings.wav" WAVE
  TRACK 05 AUDIO
    TITLE "Mixed Feelings"
    PERFORMER "Aktivehate"
    INDEX 01 00:00:00
FILE "06. Aktivehate - Diseased.wav" WAVE
  TRACK 06 AUDIO
    TITLE "Diseased"
    PERFORMER "Aktivehate"
    INDEX 01 00:00:00
FILE "07. Aktivehate - Phantom.wav" WAVE
  TRACK 07 AUDIO
    TITLE "Phantom"
    PERFORMER "Aktivehate"
    INDEX 01 00:00:00
FILE "08. Aktivehate - 00H00.wav" WAVE
  TRACK 08 AUDIO
    TITLE "00H00"
    PERFORMER "Aktivehate"
    INDEX 01 00:00:00
FILE "09. Aktivehate - Sacramentum.wav" WAVE
  TRACK 09 AUDIO
    TITLE "Sacramentum"
    PERFORMER "Aktivehate"
    INDEX 01 00:00:00
FILE "10. Aktivehate - Play the Game.wav" WAVE
  TRACK 10 AUDIO
    TITLE "Play the Game"
    PERFORMER "Aktivehate"
    INDEX 01 00:00:00
FILE "11. Aktivehate - Handful Of Nothing.wav" WAVE
  TRACK 11 AUDIO
    TITLE "Handful Of Nothing"
    PERFORMER "Aktivehate"
    INDEX 01 00:00:00
FILE "12. Aktivehate - Trigger Happy.wav" WAVE
  TRACK 12 AUDIO
    TITLE "Trigger Happy"
    PERFORMER "Aktivehate"
    INDEX 01 00:00:00
FILE "13. Aktivehate - Chemicals.wav" WAVE
  TRACK 13 AUDIO
    TITLE "Chemicals"
    PERFORMER "Aktivehate"
    INDEX 01 00:00:00
FILE "14. Aktivehate - Bipolar.wav" WAVE
  TRACK 14 AUDIO
    TITLE "Bipolar"
    PERFORMER "Aktivehate"
    INDEX 01 00:00:00
FILE "15. Aktivehate - Play the Game (The Twilight Freakshow Monster and Servant Mix].wav" WAVE
  TRACK 15 AUDIO
    TITLE "Play the Game (The Twilight Freakshow Monster and Servant Mix]"
    PERFORMER "Aktivehate"
    INDEX 01 00:00:00
Правила, инструкции, FAQ!!!
Торрент  Добавлен [26 июн 2020, 17:25] Скачать торрент Магнет ссылка
Скачать торрент
[ Размер 13.64 КБ / Просмотров 10 ]

Статус
Проверен 
 
Размер  606.63 МБ
Приватный: Нет (DHT включён)
.torrent скачан  0
 


     Отправить личное сообщение
   
Страница 1 из 1
Показать сообщения за:  Поле сортировки  
Начать новую тему Ответить на тему


Сейчас этот форум просматривают: нет зарегистрированных пользователей и гости: 0


Вы не можете начинать темы
Вы не можете отвечать на сообщения
Вы не можете редактировать свои сообщения
Вы не можете удалять свои сообщения
Вы не можете добавлять вложения

Перейти:  
cron