Начать новую тему Ответить на тему
Статистика раздачи
Размер: 403.49 МБ | Добавлен: 26 июн 2020, 16:53 | Скачали: 0
Сидеров: 0  [0 байт/сек]    Личеров: 0  [0 байт/сек]
Пред. тема | След. тема 

Автор
Сообщение

СообщениеДобавлено: 26 июн 2020, 16:53 

Ответить с цитатой 

Adam / Adam
Жанр: EBM, Electro, Industrial
Страна-производитель диска: Germany
Год издания диска: 2007
Издатель (лейбл): Fear Section, SPV GmbH
Номер по каталогу: Fear 027, SPV CD 320582
Страна: Italy
Аудио кодек: FLAC (*.flac)
Тип рипа: tracks+.cue
Битрейт аудио: lossless
Продолжительность: 51:19
Источник (релизер): CD-R
Наличие сканов в содержимом раздачи: нет
Треклист:
1 Voodoo Nation 3:59
2 Dead Walking Machine 3:49
3 The Perfect Day To Die 4:11
4 Kaos Inside 3:32
5 Ugly Smile 4:08
6 Send Me An Angel 4:11
7 Between Life And Hell 3:45
8 Don't Erase My Name 4:40
9 Dead Syllables 4:52
10 Falling Down Again 4:01
11 Voodoo Nation (XP8 Remix) 5:08
12 Voodoo Nation (Vdiva Deconstruction Mix) 4:57
Код:
Exact Audio Copy V0.99 prebeta 5 from 4. May 2009
EAC extraction logfile from 20. November 2010, 22:34
Adam / Adam
Used drive  : PIONEER DVD-RW  DVR-216D   Adapter: 0  ID: 0
Read mode               : Secure
Utilize accurate stream : Yes
Defeat audio cache      : Yes
Make use of C2 pointers : No
Read offset correction                      : 96
Overread into Lead-In and Lead-Out          : No
Fill up missing offset samples with silence : Yes
Delete leading and trailing silent blocks   : No
Null samples used in CRC calculations       : Yes
Used interface                              : Native Win32 interface for Win NT & 2000
Gap handling                                : Appended to previous track
Used output format              : User Defined Encoder
Selected bitrate                : 1024 kBit/s
Quality                         : High
Add ID3 tag                     : No
Command line compressor         : C:\Program Files (x86)\Exact Audio Copy\Flac\flac.exe
Additional command line options : -8 -V -T "ARTIST=%a" -T "TITLE=%t" -T "ALBUM=%g" -T "DATE=%y" -T "TRACKNUMBER=%n" -T "GENRE=%m" -T "COMMENT=EAC FLAC -8" %s
TOC of the extracted CD
     Track |   Start  |  Length  | Start sector | End sector
    ---------------------------------------------------------
        1  |  0:00.00 |  3:59.39 |         0    |    17963
        2  |  3:59.39 |  3:49.16 |     17964    |    35154
        3  |  7:48.55 |  4:11.16 |     35155    |    53995
        4  | 11:59.71 |  3:32.04 |     53996    |    69899
        5  | 15:32.00 |  4:08.72 |     69900    |    88571
        6  | 19:40.72 |  4:11.30 |     88572    |   107426
        7  | 23:52.27 |  3:45.47 |    107427    |   124348
        8  | 27:37.74 |  4:40.53 |    124349    |   145401
        9  | 32:18.52 |  4:52.62 |    145402    |   167363
       10  | 37:11.39 |  4:01.35 |    167364    |   185473
       11  | 41:12.74 |  5:08.10 |    185474    |   208583
       12  | 46:21.09 |  4:57.36 |    208584    |   230894
Track  1
     Filename I:\Audio\TORRENTS\Adam\tracks\ 01. Adam – Voodoo nation.wav
     Pre-gap length  0:00:02.00
     Peak level 98.2 %
     Track quality 100.0 %
     Test CRC A48F8BDC
     Copy CRC A48F8BDC
     Cannot be verified as accurate (confidence 2)  [D9F852C5], AccurateRip returned [BC0E319D]
     Copy OK
Track  2
     Filename I:\Audio\TORRENTS\Adam\tracks\ 02. Adam – Dead walking machine.wav
     Peak level 97.9 %
     Track quality 100.0 %
     Test CRC CA10D83C
     Copy CRC CA10D83C
     Cannot be verified as accurate (confidence 2)  [9423DE86], AccurateRip returned [8B2E6D36]
     Copy OK
Track  3
     Filename I:\Audio\TORRENTS\Adam\tracks\ 03. Adam – The perfect day to die.wav
     Peak level 97.8 %
     Track quality 100.0 %
     Test CRC C5FBFFB5
     Copy CRC C5FBFFB5
     Cannot be verified as accurate (confidence 2)  [72E9087A], AccurateRip returned [876B6FBE]
     Copy OK
Track  4
     Filename I:\Audio\TORRENTS\Adam\tracks\ 04. Adam – Kaos inside.wav
     Peak level 98.2 %
     Track quality 100.0 %
     Test CRC B924628E
     Copy CRC B924628E
     Cannot be verified as accurate (confidence 2)  [DAD519C6], AccurateRip returned [C0280A96]
     Copy OK
Track  5
     Filename I:\Audio\TORRENTS\Adam\tracks\ 05. Adam – Ugly smile.wav
     Peak level 97.9 %
     Track quality 100.0 %
     Test CRC 58D5116C
     Copy CRC 58D5116C
     Cannot be verified as accurate (confidence 2)  [F66E508F], AccurateRip returned [BF4F5C17]
     Copy OK
Track  6
     Filename I:\Audio\TORRENTS\Adam\tracks\ 06. Adam – Send me an angel.wav
     Peak level 98.1 %
     Track quality 99.9 %
     Test CRC C02C4ED1
     Copy CRC C02C4ED1
     Cannot be verified as accurate (confidence 2)  [438953FB], AccurateRip returned [F0E8CEFB]
     Copy OK
Track  7
     Filename I:\Audio\TORRENTS\Adam\tracks\ 07. Adam – Between life and hell.wav
     Peak level 98.1 %
     Track quality 100.0 %
     Test CRC F87D0C36
     Copy CRC F87D0C36
     Cannot be verified as accurate (confidence 2)  [39E930CF], AccurateRip returned [F3BEE1E7]
     Copy OK
Track  8
     Filename I:\Audio\TORRENTS\Adam\tracks\ 08. Adam – Don't erase my name.wav
     Peak level 98.0 %
     Track quality 100.0 %
     Test CRC 1F515724
     Copy CRC 1F515724
     Cannot be verified as accurate (confidence 2)  [A3B7A6D2], AccurateRip returned [94CF89C2]
     Copy OK
Track  9
     Filename I:\Audio\TORRENTS\Adam\tracks\ 09. Adam – Dead syllables.wav
     Peak level 98.0 %
     Track quality 100.0 %
     Test CRC DF3AC68E
     Copy CRC DF3AC68E
     Cannot be verified as accurate (confidence 2)  [9F5827B6], AccurateRip returned [1A19C122]
     Copy OK
Track 10
     Filename I:\Audio\TORRENTS\Adam\tracks\ 10. Adam – Falling down again.wav
     Peak level 98.1 %
     Track quality 100.0 %
     Test CRC EC7F6EE9
     Copy CRC EC7F6EE9
     Cannot be verified as accurate (confidence 2)  [CE23213B], AccurateRip returned [094986D7]
     Copy OK
Track 11
     Filename I:\Audio\TORRENTS\Adam\tracks\ 11. Adam – Voodoo nation (XP8 Remix).wav
     Peak level 98.1 %
     Track quality 99.9 %
     Test CRC 734E4D56
     Copy CRC 734E4D56
     Cannot be verified as accurate (confidence 2)  [B12A391D], AccurateRip returned [EAC557F9]
     Copy OK
Track 12
     Filename I:\Audio\TORRENTS\Adam\tracks\ 12. Adam – Voodoo nation (Vdiva deconstruction Mix).wav
     Peak level 97.9 %
     Track quality 100.0 %
     Test CRC C19CB969
     Copy CRC C19CB969
     Cannot be verified as accurate (confidence 2)  [74C012C0], AccurateRip returned [9430C0EC]
     Copy OK
No tracks could be verified as accurate
You may have a different pressing from the one(s) in the database
No errors occurred
End of status report
Код:
REM GENRE Industrial
REM DATE 2007
REM DISCID 980C060C
REM COMMENT "ExactAudioCopy v0.99pb5"
PERFORMER "Adam"
TITLE "Adam"
FILE " 01. Adam – Voodoo nation.wav" WAVE
  TRACK 01 AUDIO
    TITLE "Voodoo nation"
    PERFORMER "Adam"
    INDEX 01 00:00:00
FILE " 02. Adam – Dead walking machine.wav" WAVE
  TRACK 02 AUDIO
    TITLE "Dead walking machine"
    PERFORMER "Adam"
    INDEX 01 00:00:00
FILE " 03. Adam – The perfect day to die.wav" WAVE
  TRACK 03 AUDIO
    TITLE "The perfect day to die"
    PERFORMER "Adam"
    INDEX 01 00:00:00
FILE " 04. Adam – Kaos inside.wav" WAVE
  TRACK 04 AUDIO
    TITLE "Kaos inside"
    PERFORMER "Adam"
    INDEX 01 00:00:00
FILE " 05. Adam – Ugly smile.wav" WAVE
  TRACK 05 AUDIO
    TITLE "Ugly smile"
    PERFORMER "Adam"
    INDEX 01 00:00:00
FILE " 06. Adam – Send me an angel.wav" WAVE
  TRACK 06 AUDIO
    TITLE "Send me an angel"
    PERFORMER "Adam"
    INDEX 01 00:00:00
FILE " 07. Adam – Between life and hell.wav" WAVE
  TRACK 07 AUDIO
    TITLE "Between life and hell"
    PERFORMER "Adam"
    INDEX 01 00:00:00
FILE " 08. Adam – Don't erase my name.wav" WAVE
  TRACK 08 AUDIO
    TITLE "Don't erase my name"
    PERFORMER "Adam"
    INDEX 01 00:00:00
FILE " 09. Adam – Dead syllables.wav" WAVE
  TRACK 09 AUDIO
    TITLE "Dead syllables"
    PERFORMER "Adam"
    INDEX 01 00:00:00
FILE " 10. Adam – Falling down again.wav" WAVE
  TRACK 10 AUDIO
    TITLE "Falling down again"
    PERFORMER "Adam"
    INDEX 01 00:00:00
FILE " 11. Adam – Voodoo nation (XP8 Remix).wav" WAVE
  TRACK 11 AUDIO
    TITLE "Voodoo nation (XP8 Remix)"
    PERFORMER "Adam"
    INDEX 01 00:00:00
FILE " 12. Adam – Voodoo nation (Vdiva deconstruction Mix).wav" WAVE
  TRACK 12 AUDIO
    TITLE "Voodoo nation (Vdiva deconstruction Mix)"
    PERFORMER "Adam"
    INDEX 01 00:00:00
Код:
Started at: суббота, 20. 11. 2010. - 21:49.14
12 files found
01 -===- track 1 in drive PIONEER DVD-RW  DVR-216D
  Track ripped successfully
  Conclusion: this track is CDDA with probability 100%
  Tempfile successfully deleted.
02 -===- track 2 in drive PIONEER DVD-RW  DVR-216D
  Track ripped successfully
  Conclusion: this track is CDDA with probability 100%
  Tempfile successfully deleted.
03 -===- track 3 in drive PIONEER DVD-RW  DVR-216D
  Track ripped successfully
  Conclusion: this track is CDDA with probability 100%
  Tempfile successfully deleted.
04 -===- track 4 in drive PIONEER DVD-RW  DVR-216D
  Track ripped successfully
  Conclusion: this track is CDDA with probability 100%
  Tempfile successfully deleted.
05 -===- track 5 in drive PIONEER DVD-RW  DVR-216D
  Track ripped successfully
  Conclusion: this track is CDDA with probability 100%
  Tempfile successfully deleted.
06 -===- track 6 in drive PIONEER DVD-RW  DVR-216D
  Track ripped successfully
  Conclusion: this track is CDDA with probability 100%
  Tempfile successfully deleted.
07 -===- track 7 in drive PIONEER DVD-RW  DVR-216D
  Track ripped successfully
  Conclusion: this track is CDDA with probability 100%
  Tempfile successfully deleted.
08 -===- track 8 in drive PIONEER DVD-RW  DVR-216D
  Track ripped successfully
  Conclusion: this track is CDDA with probability 100%
  Tempfile successfully deleted.
09 -===- track 9 in drive PIONEER DVD-RW  DVR-216D
  Track ripped successfully
  Conclusion: this track is CDDA with probability 100%
  Tempfile successfully deleted.
10 -===- track 10 in drive PIONEER DVD-RW  DVR-216D
  Track ripped successfully
  Conclusion: this track is CDDA with probability 100%
  Tempfile successfully deleted.
11 -===- track 11 in drive PIONEER DVD-RW  DVR-216D
  Track ripped successfully
  Conclusion: this track is CDDA with probability 100%
  Tempfile successfully deleted.
12 -===- track 12 in drive PIONEER DVD-RW  DVR-216D
  Track ripped successfully
  Conclusion: this track is CDDA with probability 99%
  Tempfile successfully deleted.
Finished at: суббота, 20. 11. 2010. - 21:56.51 (operation time: 0:07.37)


Доп. информация: http://www.discogs.com/Adam-Adam/release/1067713
http://www.myspace.com/adamkult
В 2009 году сменили название на Adam Kult.
Budah, D.Zardman, Fog, Jeez, Lucyan, Violent Diva
Правила, инструкции, FAQ!!!
Торрент  Добавлен [26 июн 2020, 16:53] Скачать торрент Магнет ссылка
Скачать торрент
[ Размер 18.43 КБ / Просмотров 4 ]

Статус
Проверен 
 
Размер  403.49 МБ
Приватный: Нет (DHT включён)
.torrent скачан  0
 


     Отправить личное сообщение
   
Страница 1 из 1
Показать сообщения за:  Поле сортировки  
Начать новую тему Ответить на тему


Сейчас этот форум просматривают: нет зарегистрированных пользователей и гости: 0


Вы не можете начинать темы
Вы не можете отвечать на сообщения
Вы не можете редактировать свои сообщения
Вы не можете удалять свои сообщения
Вы не можете добавлять вложения

Перейти:  
cron