Начать новую тему Ответить на тему
Статистика раздачи
Размер: 791.84 МБ | Добавлен: 26 июн 2020, 20:33 | Скачали: 0
Сидеров: 2  [0 байт/сек]    Личеров: 1  [0 байт/сек]
Пред. тема | След. тема 

Автор
Сообщение

СообщениеДобавлено: 26 июн 2020, 20:33 

Ответить с цитатой 

Icon Of Coil / Uploaded And Remixed [CD, EP, Limited Edition]
Жанр: EBM, Electro
Страна-производитель диска: Germany
Год издания диска: 2004
Издатель (лейбл): Out Of Line
Номер по каталогу: OUT 170 | OUT 171
Страна: Norway
Аудио кодек: FLAC (*.flac)
Тип рипа: image+.cue
Битрейт аудио: lossless
Продолжительность: 01:16:30+00:25:20
Источник (релизер): Личные диски
Наличие сканов в содержимом раздачи: да
Треклист:
Uploaded And Remixed
01. Shallow Nation (2004 Version) 4:44
02. Floorkiller (2004 Version) 4:59
03. Repeat It (Apoptygma Berzerk Remix) 6:14
04. Regret (Combichrist Remix) 5:01
05. Simulated (Funker Vogt Remix) 5:41
06. Thrillcapsule (Moonitor Remix) 4:43
07. Access And Amplify (FGFC820 Mix) 5:20
08. You Just Died (Northborn Remix) 5:22
09. Love As Blood (Implant Remix) 7:12
10. Floorkiller (Daedal Remix) 3:51
11. Disconnect (Goteki Remix) 5:46
12. Everything Is Real (Isle Of Crows Remix) 4:55
13. Been There (Exclusive Track) 5:59
14. TB Memory (Exclusive Track) 6:42
Shelter EP
01. Shelter (Single Edit) 3:59
02. Shelter (OL Mix) 5:26
03. Shelter (According To Combichrist) 5:25
04. Shelter (Analogue Brain Remix) 5:20
05. Shelter (Soman Mix) 5:10
Код:
Exact Audio Copy V0.99 prebeta 5 from 4. May 2009
Отчёт EAC об извлечении, выполненном 22. января 2011, 21:46
Icon Of Coil / Uploaded And Remixed
Дисковод: Optiarc DVD RW AD-7201S   Adapter: 2  ID: 1
Режим чтения                 : Достоверность
Использование точного потока : Да
Отключение кэша аудио        : Да
Использование указателей C2  : Нет
Коррекция смещения при чтении                     : 48
Способность читать области Lead-in и Lead-out     : Нет
Заполнение пропущенных сэмплов тишиной            : Да
Удаление блоков с тишиной в начале и конце        : Нет
При вычислениях CRC использовались нулевые сэмплы : Да
Интерфейс                                         : Встроенный Win32-интерфейс для Win NT/2000
Выходной формат : Внутренние WAV-операции
Формат сэмплов  : 44.100 Гц; 16 бит; стерео
TOC извлечённого CD
     Трек |   Старт  | Длительность | Начальный сектор | Конечный сектор
    ---------------------------------------------------------------------
       1  |  0:00.00 |    4:44.03   |           0      |      21302
       2  |  4:44.03 |    4:59.51   |       21303      |      43778
       3  |  9:43.54 |    6:14.07   |       43779      |      71835
       4  | 15:57.61 |    5:00.35   |       71836      |      94370
       5  | 20:58.21 |    5:40.64   |       94371      |     119934
       6  | 26:39.10 |    4:42.67   |      119935      |     141151
       7  | 31:22.02 |    5:20.51   |      141152      |     165202
       8  | 36:42.53 |    5:21.44   |      165203      |     189321
       9  | 42:04.22 |    7:12.09   |      189322      |     221730
      10  | 49:16.31 |    3:51.31   |      221731      |     239086
      11  | 53:07.62 |    5:45.19   |      239087      |     264980
      12  | 58:53.06 |    4:55.00   |      264981      |     287105
      13  | 63:48.06 |    5:59.26   |      287106      |     314056
      14  | 69:47.32 |    6:42.42   |      314057      |     344248
Характеристики диапазона извлечения и сообщения об ошибках
Выбранный диапазон
     Имя файла D:\Раздачи DEHUMANOID\Icon Of Coil - Uploaded And Remixed\Icon Of Coil - Uploaded And Remixed.wav
     Пиковый уровень 100.0 %
     Качество диапазона 100.0 %
     CRC теста CA5E81E8
     CRC копии CA5E81E8
     Копирование... OK
Ошибок не произошло
AccurateRip: сводка
Трек  1  точное извлечение (доверие 15) [876A0ABA]
Трек  2  точное извлечение (доверие 15) [DA3D6932]
Трек  3  точное извлечение (доверие 15) [4371E7DA]
Трек  4  точное извлечение (доверие 15) [B0798470]
Трек  5  точное извлечение (доверие 15) [9014CBC3]
Трек  6  точное извлечение (доверие 15) [AB16AFCB]
Трек  7  точное извлечение (доверие 15) [C765C807]
Трек  8  точное извлечение (доверие 15) [98F6749C]
Трек  9  точное извлечение (доверие 15) [11870D23]
Трек 10  точное извлечение (доверие 15) [E1F95B42]
Трек 11  точное извлечение (доверие 15) [9D66DFD8]
Трек 12  точное извлечение (доверие 15) [204B2EDB]
Трек 13  точное извлечение (доверие 15) [81BD9E62]
Трек 14  точное извлечение (доверие 15) [31B08BCE]
Все треки извлечены точно
Конец отчёта
------------------------------------------------------------------------------------------------------------------------------------------------------------------------------------------------------------------
Exact Audio Copy V0.99 prebeta 5 from 4. May 2009
Отчёт EAC об извлечении, выполненном 22. января 2011, 21:58
Icon Of Coil / Shelter
Дисковод: Optiarc DVD RW AD-7201S   Adapter: 2  ID: 1
Режим чтения                 : Достоверность
Использование точного потока : Да
Отключение кэша аудио        : Да
Использование указателей C2  : Нет
Коррекция смещения при чтении                     : 48
Способность читать области Lead-in и Lead-out     : Нет
Заполнение пропущенных сэмплов тишиной            : Да
Удаление блоков с тишиной в начале и конце        : Нет
При вычислениях CRC использовались нулевые сэмплы : Да
Интерфейс                                         : Встроенный Win32-интерфейс для Win NT/2000
Выходной формат : Внутренние WAV-операции
Формат сэмплов  : 44.100 Гц; 16 бит; стерео
TOC извлечённого CD
     Трек |   Старт  | Длительность | Начальный сектор | Конечный сектор
    ---------------------------------------------------------------------
       1  |  0:00.00 |    3:59.63   |           0      |      17987
       2  |  3:59.63 |    5:26.00   |       17988      |      42437
       3  |  9:25.63 |    5:24.23   |       42438      |      66760
       4  | 14:50.11 |    5:20.60   |       66761      |      90820
       5  | 20:10.71 |    5:09.35   |       90821      |     114030
Характеристики диапазона извлечения и сообщения об ошибках
Выбранный диапазон
     Имя файла D:\Раздачи DEHUMANOID\Icon Of Coil - Uploaded And Remixed\Icon Of Coil - Shelter.wav
     Пиковый уровень 98.2 %
     Качество диапазона 100.0 %
     CRC теста 95B049B2
     CRC копии 95B049B2
     Копирование... OK
Ошибок не произошло
AccurateRip: сводка
Трек  1  точное извлечение (доверие 15) [D93D61A1]
Трек  2  точное извлечение (доверие 15) [AE915FBB]
Трек  3  точное извлечение (доверие 15) [F2A1637D]
Трек  4  точное извлечение (доверие 15) [A7FE9CC5]
Трек  5  точное извлечение (доверие 15) [548B06DA]
Все треки извлечены точно
Конец отчёта
Код:
Started at: суббота, 22. 01. 2011. - 22:02.58
2 files found
1 -===- D:\Раздачи DEHUMANOID\Icon Of Coil - Uploaded And Remixed\Icon Of Coil - Shelter.flac
  Extracted successfully
  Conclusion: this track is CDDA with probability 100%
  Tempfile successfully deleted.
2 -===- D:\Раздачи DEHUMANOID\Icon Of Coil - Uploaded And Remixed\Icon Of Coil - Uploaded And Remixed.flac
  Extracted successfully
  Conclusion: this track is CDDA with probability 100%
  Tempfile successfully deleted.
Finished at: суббота, 22. 01. 2011. - 22:13.34 (operation time: 0:10.35)
Правила, инструкции, FAQ!!!
Торрент  Добавлен [26 июн 2020, 20:33] Скачать торрент Магнет ссылка
Скачать торрент
[ Размер 16.7 КБ / Просмотров 9 ]

Статус
Проверен 
 
Размер  791.84 МБ
Приватный: Нет (DHT включён)
.torrent скачан  0
 


     Отправить личное сообщение
   
Страница 1 из 1
Показать сообщения за:  Поле сортировки  
Начать новую тему Ответить на тему


Сейчас этот форум просматривают: нет зарегистрированных пользователей и гости: 0


Вы не можете начинать темы
Вы не можете отвечать на сообщения
Вы не можете редактировать свои сообщения
Вы не можете удалять свои сообщения
Вы не можете добавлять вложения

Перейти:  
cron