Начать новую тему Ответить на тему
Статистика раздачи
Размер: 793.8 МБ | Добавлен: 26 июн 2020, 20:29 | Скачали: 0
Сидеров: 0  [0 байт/сек]    Личеров: 0  [0 байт/сек]
Пред. тема | След. тема 

Автор
Сообщение

СообщениеДобавлено: 26 июн 2020, 20:29 

Ответить с цитатой 

Icon Of Coil / Machines Are Us (2 CD Box Set, Limited Edition)
#777Жанр: EBM, Electro
Страна-производитель диска: Germany
Год издания диска: 2004
Издатель (лейбл): Out Of Line
Номер по каталогу: OUT 136 / OUT 127
Страна: Norway
Аудио кодек: FLAC (*.flac)
Тип рипа: image+.cue
Битрейт аудио: lossless
Продолжительность: 1:12:59.43 + 0:36:04.30
Источник (релизер): 2CD Box из личной коллекции.
Наличие сканов в содержимом раздачи: да
Треклист:
CD 1 - Machines Are Us
01. Comment V.2.0 0:32
02. Remove/Replace 4:55
03. Consumer 6:07
04. Shelter 5:53
05. Mono:Overload? 4:57
06. Existence In Progress 5:22
07. Faith:Not Important 5:21
08. Transfer:Complete 5:38
09. Dead Enough For Life 5:05
10. Wiretrip 3:27
11. Android 5:26
12. Sleep:Less 6:29
13. Pursuit 4:42
14. Release The Frequency / Afterwords 8:59
CD 2 - SoundDivE.P.
01. Then And Us (Exclusive Lmtd Box Track) 4:54
02. Sleep:Less (8am Version) 6:06
03. Transfer:Complete (Delobbo Remix) 7:25
04. Transfer:Complete (Pitch Black Mix By D.r.i.v.E.) 5:52
05. Consumer (No Sign Of JD On Mars Mix By Moonitor) 6:21
06. Wiretrip (Isle Of Crows Remix) 5:23
Код:
Exact Audio Copy V0.99 prebeta 5 from 4. May 2009
Отчёт EAC об извлечении, выполненном 6. ноября 2010, 11:40
Icon Of Coil / Machines Are Us
Дисковод: TSSTcorpCDDVDW TS-L632H   Adapter: 0  ID: 0
Режим чтения                 : Достоверность
Использование точного потока : Да
Отключение кэша аудио        : Да
Использование указателей C2  : Нет
Коррекция смещения при чтении                     : 6
Способность читать области Lead-in и Lead-out     : Нет
Заполнение пропущенных сэмплов тишиной            : Да
Удаление блоков с тишиной в начале и конце        : Нет
При вычислениях CRC использовались нулевые сэмплы : Да
Интерфейс                                         : Встроенный Win32-интерфейс для Win NT/2000
Выходной формат          : Пользовательский кодировщик
Выбранный битрейт        : 1024 kBit/s
Качество                 : Высокий
Добавление ID3-тэга      : Нет
Утилита сжатия           : C:\Program Files\Exact Audio Copy\FLAC\FLAC.EXE
Дополнительные параметры : -6 -V -T "ARTIST=%a" -T "TITLE=%t" -T "ALBUM=%g" -T "DATE=%y" -T "TRACKNUMBER=%n" -T "GENRE=%m" -T "COMMENT=%e" %s -o %d
TOC извлечённого CD
     Трек |   Старт  | Длительность | Начальный сектор | Конечный сектор
    ---------------------------------------------------------------------
       1  |  0:00.00 |    0:32.60   |           0      |       2459
       2  |  0:32.60 |    4:55.23   |        2460      |      24607
       3  |  5:28.08 |    6:07.26   |       24608      |      52158
       4  | 11:35.34 |    5:53.50   |       52159      |      78683
       5  | 17:29.09 |    4:57.32   |       78684      |     100990
       6  | 22:26.41 |    5:22.24   |      100991      |     125164
       7  | 27:48.65 |    5:21.30   |      125165      |     149269
       8  | 33:10.20 |    5:38.45   |      149270      |     174664
       9  | 38:48.65 |    5:05.04   |      174665      |     197543
      10  | 43:53.69 |    3:27.74   |      197544      |     213142
      11  | 47:21.68 |    5:26.00   |      213143      |     237592
      12  | 52:47.68 |    6:29.27   |      237593      |     266794
      13  | 59:17.20 |    4:42.72   |      266795      |     288016
      14  | 64:00.17 |    8:59.26   |      288017      |     328467
Характеристики диапазона извлечения и сообщения об ошибках
Выбранный диапазон
     Имя файла C:\Users\Алексей\Desktop\iPOD\Icon Of Coil - Machines Are Us.wav
     Пиковый уровень 100.0 %
     Качество диапазона 100.0 %
     CRC теста 10320A7F
     CRC копии 10320A7F
     Копирование... OK
Ошибок не произошло
AccurateRip: сводка
Трек  1  точное извлечение (доверие 12)  [D5A22826]
Трек  2  точное извлечение (доверие 12)  [9897E68D]
Трек  3  точное извлечение (доверие 12)  [E3EB52D2]
Трек  4  точное извлечение (доверие 12)  [71E59951]
Трек  5  точное извлечение (доверие 12)  [603EDA65]
Трек  6  точное извлечение (доверие 12)  [AC23883F]
Трек  7  точное извлечение (доверие 12)  [D42F53C5]
Трек  8  точное извлечение (доверие 12)  [241AA8D6]
Трек  9  точное извлечение (доверие 12)  [4E3456E3]
Трек 10  точное извлечение (доверие 12)  [B0847F3B]
Трек 11  точное извлечение (доверие 12)  [05FB2607]
Трек 12  точное извлечение (доверие 12)  [C9E97848]
Трек 13  точное извлечение (доверие 12)  [E1C05D74]
Трек 14  точное извлечение (доверие 12)  [9A9490FB]
Все треки извлечены точно
Конец отчёта
Код:
Exact Audio Copy V0.99 prebeta 5 from 4. May 2009
Отчёт EAC об извлечении, выполненном 6. ноября 2010, 12:15
Icon Of Coil / SoundDivE.P.
Дисковод: TSSTcorpCDDVDW TS-L632H   Adapter: 0  ID: 0
Режим чтения                 : Достоверность
Использование точного потока : Да
Отключение кэша аудио        : Да
Использование указателей C2  : Нет
Коррекция смещения при чтении                     : 6
Способность читать области Lead-in и Lead-out     : Нет
Заполнение пропущенных сэмплов тишиной            : Да
Удаление блоков с тишиной в начале и конце        : Нет
При вычислениях CRC использовались нулевые сэмплы : Да
Интерфейс                                         : Встроенный Win32-интерфейс для Win NT/2000
Выходной формат          : Пользовательский кодировщик
Выбранный битрейт        : 1024 kBit/s
Качество                 : Высокий
Добавление ID3-тэга      : Нет
Утилита сжатия           : C:\Program Files\Exact Audio Copy\FLAC\FLAC.EXE
Дополнительные параметры : -6 -V -T "ARTIST=%a" -T "TITLE=%t" -T "ALBUM=%g" -T "DATE=%y" -T "TRACKNUMBER=%n" -T "GENRE=%m" -T "COMMENT=%e" %s -o %d
TOC извлечённого CD
     Трек |   Старт  | Длительность | Начальный сектор | Конечный сектор
    ---------------------------------------------------------------------
       1  |  0:00.00 |    4:54.71   |           0      |      22120
       2  |  4:54.71 |    6:06.68   |       22121      |      49638
       3  | 11:01.64 |    7:25.31   |       49639      |      83044
       4  | 18:27.20 |    5:52.30   |       83045      |     109474
       5  | 24:19.50 |    6:21.41   |      109475      |     138090
       6  | 30:41.16 |    5:23.14   |      138091      |     162329
Характеристики диапазона извлечения и сообщения об ошибках
Выбранный диапазон
     Имя файла C:\Users\Алексей\Desktop\iPOD\Icon Of Coil - SoundDivE.P..wav
     Пиковый уровень 100.0 %
     Качество диапазона 99.9 %
     CRC теста 8678C1F0
     CRC копии 8678C1F0
     Копирование... OK
Ошибок не произошло
AccurateRip: сводка
Трек  1  точное извлечение (доверие 4)  [302FED2C]
Трек  2  точное извлечение (доверие 4)  [E9CE1855]
Трек  3  точное извлечение (доверие 4)  [2A5746D1]
Трек  4  точное извлечение (доверие 4)  [5B93DB14]
Трек  5  точное извлечение (доверие 4)  [C32E15BB]
Трек  6  точное извлечение (доверие 4)  [37B090CB]
Все треки извлечены точно
Конец отчёта
Код:
REM GENRE Industrial
REM DATE 2004
REM DISCID C2111B0E
REM COMMENT "ExactAudioCopy v0.99pb5"
PERFORMER "Icon Of Coil"
TITLE "Machines Are Us"
FILE "Icon Of Coil - Machines Are Us.flac" WAVE
  TRACK 01 AUDIO
    TITLE "Comment v.2.0"
    PERFORMER "Icon Of Coil"
    FLAGS DCP
    INDEX 01 00:00:00
  TRACK 02 AUDIO
    TITLE "Remove / Replace"
    PERFORMER "Icon Of Coil"
    FLAGS DCP
    INDEX 01 00:32:60
  TRACK 03 AUDIO
    TITLE "Consumer"
    PERFORMER "Icon Of Coil"
    FLAGS DCP
    INDEX 00 05:27:38
    INDEX 01 05:28:08
  TRACK 04 AUDIO
    TITLE "Shelter"
    PERFORMER "Icon Of Coil"
    FLAGS DCP
    INDEX 00 11:34:64
    INDEX 01 11:35:34
  TRACK 05 AUDIO
    TITLE "Mono: Overload?"
    PERFORMER "Icon Of Coil"
    FLAGS DCP
    INDEX 00 17:28:39
    INDEX 01 17:29:09
  TRACK 06 AUDIO
    TITLE "Existence In Progress"
    PERFORMER "Icon Of Coil"
    FLAGS DCP
    INDEX 00 22:25:71
    INDEX 01 22:26:41
  TRACK 07 AUDIO
    TITLE "Faith: Not Important"
    PERFORMER "Icon Of Coil"
    FLAGS DCP
    INDEX 00 27:48:20
    INDEX 01 27:48:65
  TRACK 08 AUDIO
    TITLE "Transfer: Complete"
    PERFORMER "Icon Of Coil"
    FLAGS DCP
    INDEX 00 33:09:50
    INDEX 01 33:10:20
  TRACK 09 AUDIO
    TITLE "Dead Enough For Life"
    PERFORMER "Icon Of Coil"
    FLAGS DCP
    INDEX 00 38:48:20
    INDEX 01 38:48:65
  TRACK 10 AUDIO
    TITLE "Wiretrip"
    PERFORMER "Icon Of Coil"
    FLAGS DCP
    INDEX 00 43:53:24
    INDEX 01 43:53:69
  TRACK 11 AUDIO
    TITLE "Android"
    PERFORMER "Icon Of Coil"
    FLAGS DCP
    INDEX 00 47:21:23
    INDEX 01 47:21:68
  TRACK 12 AUDIO
    TITLE "Sleep: Less"
    PERFORMER "Icon Of Coil"
    FLAGS DCP
    INDEX 00 52:47:23
    INDEX 01 52:47:68
  TRACK 13 AUDIO
    TITLE "Pursuit"
    PERFORMER "Icon Of Coil"
    FLAGS DCP
    INDEX 00 59:16:50
    INDEX 01 59:17:20
  TRACK 14 AUDIO
    TITLE "Release The Frequency"
    PERFORMER "Icon Of Coil"
    FLAGS DCP
    INDEX 00 63:59:47
    INDEX 01 64:00:17
Код:
REM GENRE Electronic
REM DATE 2004
REM DISCID 49087406
REM COMMENT "ExactAudioCopy v0.99pb5"
PERFORMER "Icon Of Coil"
TITLE "SoundDivE.P."
FILE "Icon Of Coil - SoundDivE.P..flac" WAVE
  TRACK 01 AUDIO
    TITLE "Then And Us (Exclusive Lmtd Box Track)"
    PERFORMER "Icon Of Coil"
    INDEX 01 00:00:00
  TRACK 02 AUDIO
    TITLE "Sleep:Less (8am Version)"
    PERFORMER "Icon Of Coil"
    INDEX 01 04:54:71
  TRACK 03 AUDIO
    TITLE "Transfer:Complete (Delobbo Remix)"
    PERFORMER "Icon Of Coil"
    INDEX 01 11:01:64
  TRACK 04 AUDIO
    TITLE "Transfer:Complete (Pitch Black Mix by D.r.i.v.E.)"
    PERFORMER "Icon Of Coil"
    INDEX 00 18:26:58
    INDEX 01 18:27:20
  TRACK 05 AUDIO
    TITLE "Consumer (No Sign Of JD On Mars Mix by Moonitor)"
    PERFORMER "Icon Of Coil"
    INDEX 00 24:17:50
    INDEX 01 24:19:50
  TRACK 06 AUDIO
    TITLE "Wiretrip (Isle Of Crows Remix)"
    PERFORMER "Icon Of Coil"
    INDEX 00 30:39:16
    INDEX 01 30:41:16
Код:
CD 1 - Machines Are Us
[url=https://fastpic.ru/view/13/2011/0109/276af1a01737acf4fed7848c00fc4c4a.jpg.html][img]http://i13.fastpic.ru/thumb/2011/0109/4a/276af1a01737acf4fed7848c00fc4c4a.jpeg[/img][/url][url=https://fastpic.ru/view/13/2011/0109/a3b0043b0a0066cd7f3dc759653d3e61.jpg.html][img]http://i13.fastpic.ru/thumb/2011/0109/61/a3b0043b0a0066cd7f3dc759653d3e61.jpeg[/img][/url][url=https://fastpic.ru/view/13/2011/0109/d7783eb58abe5fe630195b7ec4f32f09.jpg.html][img]http://i13.fastpic.ru/thumb/2011/0109/09/d7783eb58abe5fe630195b7ec4f32f09.jpeg[/img][/url][url=https://fastpic.ru/view/13/2011/0109/04a288ce85a921f535801892c475e00e.jpg.html][img]http://i13.fastpic.ru/thumb/2011/0109/0e/04a288ce85a921f535801892c475e00e.jpeg[/img][/url]
CD 2 - SoundDivE.P.
[url=https://fastpic.ru/view/13/2011/0109/11b7df000b371b85312199dc7a1d5793.jpg.html][img]http://i13.fastpic.ru/thumb/2011/0109/93/11b7df000b371b85312199dc7a1d5793.jpeg[/img][/url][url=https://fastpic.ru/view/13/2011/0109/9cbb84c118e76536d160e3d278a61320.jpg.html][img]http://i13.fastpic.ru/thumb/2011/0109/20/9cbb84c118e76536d160e3d278a61320.jpeg[/img][/url][url=https://fastpic.ru/view/13/2011/0109/c1ac517a311d1e1d65ae5f5858ebec48.jpg.html][img]http://i13.fastpic.ru/thumb/2011/0109/48/c1ac517a311d1e1d65ae5f5858ebec48.jpeg[/img][/url][url=https://fastpic.ru/view/13/2011/0109/f66ab9775c209488cac830ae3106a1b4.jpg.html][img]http://i13.fastpic.ru/thumb/2011/0109/b4/f66ab9775c209488cac830ae3106a1b4.jpeg[/img][/url]
ОГРОМНАЯ БЛАГОДАРНОСТЬ НАШЕМУ КОЛЛЕГЕ KERGARN`у ЗА СКАНЫ!!!
Правила, инструкции, FAQ!!!
Торрент  Добавлен [26 июн 2020, 20:29] Скачать торрент Магнет ссылка
Скачать торрент
[ Размер 17.8 КБ / Просмотров 9 ]

Статус
Проверен 
 
Размер  793.8 МБ
Приватный: Нет (DHT включён)
.torrent скачан  0
 


     Отправить личное сообщение
   
Страница 1 из 1
Показать сообщения за:  Поле сортировки  
Начать новую тему Ответить на тему


Сейчас этот форум просматривают: нет зарегистрированных пользователей и гости: 0


Вы не можете начинать темы
Вы не можете отвечать на сообщения
Вы не можете редактировать свои сообщения
Вы не можете удалять свои сообщения
Вы не можете добавлять вложения

Перейти:  
cron