Начать новую тему Ответить на тему
Статистика раздачи
Размер: 210.43 МБ | Добавлен: 26 июн 2020, 21:12 | Скачали: 0
Сидеров: 5  [0 байт/сек]    Личеров: 1  [0 байт/сек]
Пред. тема | След. тема 

Автор
Сообщение

СообщениеДобавлено: 26 июн 2020, 21:12 

Ответить с цитатой 

Hocico / In The Name Of Violence
Жанр: EBM, Electro
Носитель: CDM
Страна-производитель диска (релиза): Germany
Год издания: 2015
Издатель (лейбл): Out Of Line
Номер по каталогу: OUT 736
Страна исполнителя (группы): Mexico
Аудиокодек: FLAC (*.flac)
Тип рипа: image+.cue
Продолжительность: 0:28:34:35
Источник: собственный рип
Наличие сканов в содержимом раздачи: нет
Треклист:
1 In The Name Of Violence 4:40
2 Silent Crow 5:46
3 In The Name Of Violence (Sex-O-Sex Version By Hocico) 4:41
4 In The Name Of Violence (Faderhead Remix) 4:20
5 In The Name Of Violence (Xotox Remix) 3:14
6 In The Name Of Violence (Colts Remix) 5:51
Код:
Exact Audio Copy V1.0 beta 3 from 29. August 2011
Отчёт EAC об извлечении, выполненном 10. ноября 2019, 7:47
Hocico / In The Name Of Violence
Дисковод: TSSTcorpCDDVDW SH-224DB   Adapter: 1  ID: 0
Режим чтения                 : Достоверность
Использование точного потока : Да
Отключение кэша аудио        : Да
Использование указателей C2  : Нет
Коррекция смещения при чтении                     : 6
Способность читать области Lead-in и Lead-out     : Нет
Заполнение пропущенных сэмплов тишиной            : Да
Удаление блоков с тишиной в начале и конце        : Нет
При вычислениях CRC использовались нулевые сэмплы : Да
Интерфейс                                         : Встроенный Win32-интерфейс для Win NT/2000
Выходной формат          : Пользовательский кодировщик
Выбранный битрейт        : 128 kBit/s
Качество                 : Высокий
Добавление ID3-тега      : Нет
Утилита сжатия           : C:\Program Files (x86)\FLAC\flac.exe
Дополнительные параметры : -V -8 -T "Date=%year%" -T "Genre=%genre%" %source%
TOC извлечённого CD
     Трек |   Старт  | Длительность | Начальный сектор | Конечный сектор
    ---------------------------------------------------------------------
       1  |  0:00.00 |    4:40.02   |           0      |      21001
       2  |  4:40.02 |    5:46.28   |       21002      |      46979
       3  | 10:26.30 |    4:41.55   |       46980      |      68109
       4  | 15:08.10 |    4:20.02   |       68110      |      87611
       5  | 19:28.12 |    3:14.62   |       87612      |     102223
       6  | 22:42.74 |    5:51.36   |      102224      |     128584
Характеристики диапазона извлечения и сообщения об ошибках
Выбранный диапазон
     Имя файла C:\EAC\Hocico ‎– In The Name Of Violence - 2015 CD\Hocico - In The Name Of Violence.wav
     Пиковый уровень 100.0 %
     Скорость извлечения 2.5 X
     Качество диапазона 99.9 %
     CRC теста D7E4D10F
     CRC копии D7E4D10F
     Копирование... OK
Ошибок не произошло
AccurateRip: сводка
Трек  1  : извлечено точно (доверие 2)  [AA8021B2]  (AR v2)
Трек  2  : извлечено точно (доверие 2)  [50059631]  (AR v2)
Трек  3  : извлечено точно (доверие 2)  [85A5FE54]  (AR v2)
Трек  4  : извлечено точно (доверие 2)  [FDE3A10B]  (AR v2)
Трек  5  : извлечено точно (доверие 2)  [BCC3965C]  (AR v2)
Трек  6  : извлечено точно (доверие 2)  [7203F0DE]  (AR v2)
Все треки извлечены точно
Конец отчёта
==== Контрольная сумма отчёта AFC26FF0327ED949EB4C095DC91AED8CA708F36D918C9796FD586FA41157FBF9 ====
Код:
REM DATE 2015
REM DISCID 3F06B206
REM COMMENT "ExactAudioCopy v1.0b3"
PERFORMER "Hocico"
TITLE "In The Name Of Violence"
FILE "Hocico - In The Name Of Violence.flac" WAVE
  TRACK 01 AUDIO
    TITLE "In The Name Of Violence"
    PERFORMER "Hocico"
    FLAGS DCP
    INDEX 01 00:00:00
  TRACK 02 AUDIO
    TITLE " Silent Crow"
    PERFORMER "Hocico"
    FLAGS DCP
    INDEX 00 04:40:00
    INDEX 01 04:40:02
  TRACK 03 AUDIO
    TITLE " In The Name Of Violence (Sex-O-Sex Version By Hocico)"
    PERFORMER "Hocico"
    FLAGS DCP
    INDEX 00 10:26:11
    INDEX 01 10:26:30
  TRACK 04 AUDIO
    TITLE " In The Name Of Violence (Faderhead Remix)"
    PERFORMER "Hocico"
    FLAGS DCP
    INDEX 00 15:07:73
    INDEX 01 15:08:10
  TRACK 05 AUDIO
    TITLE " In The Name Of Violence (Xotox Remix)"
    PERFORMER "Hocico"
    FLAGS DCP
    INDEX 00 19:27:44
    INDEX 01 19:28:12
  TRACK 06 AUDIO
    TITLE " In The Name Of Violence (Colts Remix)"
    PERFORMER "Hocico"
    FLAGS DCP
    INDEX 00 22:42:60
    INDEX 01 22:42:74
Правила, инструкции, FAQ!!!
Торрент  Добавлен [26 июн 2020, 21:12] Скачать торрент Магнет ссылка
Скачать торрент
[ Размер 17.12 КБ / Просмотров 11 ]

Статус
Проверен 
 
Размер  210.43 МБ
Приватный: Нет (DHT включён)
.torrent скачан  0
 


     Отправить личное сообщение
   
Страница 1 из 1
Показать сообщения за:  Поле сортировки  
Начать новую тему Ответить на тему


Сейчас этот форум просматривают: нет зарегистрированных пользователей и гости: 0


Вы не можете начинать темы
Вы не можете отвечать на сообщения
Вы не можете редактировать свои сообщения
Вы не можете удалять свои сообщения
Вы не можете добавлять вложения

Перейти:  
cron
cron