Начать новую тему Ответить на тему
Статистика раздачи
Размер: 466.37 МБ | Добавлен: 26 июн 2020, 17:49 | Скачали: 0
Сидеров: 0  [0 байт/сек]    Личеров: 0  [0 байт/сек]
Пред. тема | След. тема 

Автор
Сообщение

СообщениеДобавлено: 26 июн 2020, 17:49 

Ответить с цитатой 

Grandchaos / Open Source
Жанр: EBM, Electro
Страна-производитель диска: Switzerland
Год издания диска: 2007
Издатель (лейбл): Urgence Disk Records
Номер по каталогу: KAB 041
Страна: Belgium
Аудиокодек: FLAC (*.flac)
Тип рипа: image+.cue
Битрейт аудио: lossless
Продолжительность: 1:02:43.63
Источник (релизер): CD из личной коллекции.
Наличие сканов в содержимом раздачи: да
Треклист:
01. The Ghost 1:16
02. 3rd Life 4:59
03. Raving Mad 5:07
04. Ultra Dark Day 5:54
05. Mutant X 4:06
06. True 4:21
07. Lead On! 4:03
08. God Is Dead 4:22
09. Nord Electro 5:23
10. The Enemy 3:35
11. Hard Way 4:07
12. Imposteur 4:40
13. 2nd Life 4:58
14. Ultra Rainy Day 5:51
Discogs
Код:
Exact Audio Copy V1.0 beta 3 from 29. August 2011
Отчёт EAC об извлечении, выполненном 25. декабря 2011, 7:47
Grandchaos / Open Source
Дисковод: TSSTcorpCDDVDW TS-L632H   Adapter: 0  ID: 0
Режим чтения                 : Достоверность
Использование точного потока : Да
Отключение кэша аудио        : Да
Использование указателей C2  : Нет
Коррекция смещения при чтении                     : 6
Способность читать области Lead-in и Lead-out     : Нет
Заполнение пропущенных сэмплов тишиной            : Да
Удаление блоков с тишиной в начале и конце        : Нет
При вычислениях CRC использовались нулевые сэмплы : Да
Интерфейс                                         : Встроенный Win32-интерфейс для Win NT/2000
Выходной формат          : Пользовательский кодировщик
Выбранный битрейт        : 1024 kBit/s
Качество                 : Высокий
Добавление ID3-тега      : Нет
Утилита сжатия           : C:\Program Files\Exact Audio Copy\FLAC\FLAC.EXE
Дополнительные параметры : -6 -V -T "ARTIST=%artist%" -T "TITLE=%title%" -T "ALBUM=%albumtitle%" -T "DATE=%year%" -T "TRACKNUMBER=%tracknr%" -T "GENRE=%genre%" -T "COMMENT=%comment%" -T "BAND=%albuminterpret%" -T "ALBUMARTIST=%albuminterpret%" -T "COMPOSER=%composer%" %haslyrics%--tag-from-file=LYRICS="%lyricsfile%"%haslyrics% -T "DISCNUMBER=%cdnumber%" -T "TOTALDISCS=%totalcds%" -T "TOTALTRACKS=%numtracks%" %hascover%--picture="%coverfile%"%hascover% %source% -o %dest%
TOC извлечённого CD
     Трек |   Старт  | Длительность | Начальный сектор | Конечный сектор
    ---------------------------------------------------------------------
       1  |  0:00.00 |    1:16.68   |           0      |       5767
       2  |  1:16.68 |    4:58.52   |        5768      |      28169
       3  |  6:15.45 |    5:06.55   |       28170      |      51174
       4  | 11:22.25 |    5:53.72   |       51175      |      77721
       5  | 17:16.22 |    4:05.57   |       77722      |      96153
       6  | 21:22.04 |    4:21.09   |       96154      |     115737
       7  | 25:43.13 |    4:03.51   |      115738      |     134013
       8  | 29:46.64 |    4:21.69   |      134014      |     153657
       9  | 34:08.58 |    5:22.36   |      153658      |     177843
      10  | 39:31.19 |    3:35.35   |      177844      |     194003
      11  | 43:06.54 |    4:07.02   |      194004      |     212530
      12  | 47:13.56 |    4:39.60   |      212531      |     233515
      13  | 51:53.41 |    4:58.07   |      233516      |     255872
      14  | 56:51.48 |    5:51.15   |      255873      |     282212
Характеристики диапазона извлечения и сообщения об ошибках
Выбранный диапазон
     Имя файла C:\Users\Алексей\Desktop\iPOD\Grandchaos - Open Source.wav
     Пиковый уровень 100.0 %
     Скорость извлечения 4.5 X
     Качество диапазона 100.0 %
     CRC теста D4740CC8
     CRC копии D4740CC8
     Копирование... OK
Ошибок не произошло
AccurateRip: сводка
Трек  1  отсутствует в базе данных
Трек  2  отсутствует в базе данных
Трек  3  отсутствует в базе данных
Трек  4  отсутствует в базе данных
Трек  5  отсутствует в базе данных
Трек  6  отсутствует в базе данных
Трек  7  отсутствует в базе данных
Трек  8  отсутствует в базе данных
Трек  9  отсутствует в базе данных
Трек 10  отсутствует в базе данных
Трек 11  отсутствует в базе данных
Трек 12  отсутствует в базе данных
Трек 13  отсутствует в базе данных
Трек 14  отсутствует в базе данных
Ни одного трека нет в базе AccurateRip
Конец отчёта
==== Контрольная сумма отчёта E8EDB7AC9795686F0162ABDD5CF7568410AFE08C7567787009CD6F0A4C758D60 ====
Код:
REM GENRE "EBM Industrial"
REM DATE 2008
REM DISCID CA0EB20E
REM COMMENT "ExactAudioCopy v1.0b3"
PERFORMER "Grandchaos"
TITLE "Open Source"
FILE "Grandchaos - Open Source.flac" WAVE
  TRACK 01 AUDIO
    TITLE "The Ghost"
    PERFORMER "Grandchaos"
    INDEX 01 00:00:00
  TRACK 02 AUDIO
    TITLE "3rd Life"
    PERFORMER "Grandchaos"
    INDEX 00 01:15:68
    INDEX 01 01:16:68
  TRACK 03 AUDIO
    TITLE "Raving Mad"
    PERFORMER "Grandchaos"
    INDEX 00 06:14:45
    INDEX 01 06:15:45
  TRACK 04 AUDIO
    TITLE "Ultra Dark Day"
    PERFORMER "Grandchaos"
    INDEX 00 11:21:25
    INDEX 01 11:22:25
  TRACK 05 AUDIO
    TITLE "Mutant X "
    PERFORMER "Grandchaos"
    INDEX 00 17:15:22
    INDEX 01 17:16:22
  TRACK 06 AUDIO
    TITLE "True"
    PERFORMER "Grandchaos"
    INDEX 00 21:21:04
    INDEX 01 21:22:04
  TRACK 07 AUDIO
    TITLE "Lead On!"
    PERFORMER "Grandchaos"
    INDEX 00 25:42:13
    INDEX 01 25:43:13
  TRACK 08 AUDIO
    TITLE "God Is Dead"
    PERFORMER "Grandchaos"
    INDEX 00 29:45:64
    INDEX 01 29:46:64
  TRACK 09 AUDIO
    TITLE "Nord Electro"
    PERFORMER "Grandchaos"
    INDEX 00 34:07:58
    INDEX 01 34:08:58
  TRACK 10 AUDIO
    TITLE "The Enemy"
    PERFORMER "Grandchaos"
    INDEX 00 39:30:19
    INDEX 01 39:31:19
  TRACK 11 AUDIO
    TITLE "Hard Way"
    PERFORMER "Grandchaos"
    INDEX 00 43:05:54
    INDEX 01 43:06:54
  TRACK 12 AUDIO
    TITLE "Imposteur"
    PERFORMER "Grandchaos"
    INDEX 00 47:12:56
    INDEX 01 47:13:56
  TRACK 13 AUDIO
    TITLE "2nd Life"
    PERFORMER "Grandchaos"
    INDEX 00 51:52:41
    INDEX 01 51:53:41
  TRACK 14 AUDIO
    TITLE "Ultra Rainy Day"
    PERFORMER "Grandchaos"
    INDEX 00 56:50:48
    INDEX 01 56:51:48
Код:
[url=https://fastpic.ru/view/30/2012/0101/02da6670b4715b73d7f661998d4a4633.jpg.html][img]http://i30.fastpic.ru/thumb/2012/0101/33/02da6670b4715b73d7f661998d4a4633.jpeg[/img][/url][url=https://fastpic.ru/view/28/2012/0101/20138740ec34a55468a55ff2de5971fd.jpg.html][img]http://i28.fastpic.ru/thumb/2012/0101/fd/20138740ec34a55468a55ff2de5971fd.jpeg[/img][/url][url=https://fastpic.ru/view/32/2012/0101/a1a47df854d0b33b2a537744e22aaa82.jpg.html][img]http://i32.fastpic.ru/thumb/2012/0101/82/a1a47df854d0b33b2a537744e22aaa82.jpeg[/img][/url][url=https://fastpic.ru/view/29/2012/0101/8b6a5faa30f8fe0564d3e29396172215.jpg.html][img]http://i29.fastpic.ru/thumb/2012/0101/15/8b6a5faa30f8fe0564d3e29396172215.jpeg[/img][/url]
Правила, инструкции, FAQ!!!
Торрент  Добавлен [26 июн 2020, 17:49] Скачать торрент Магнет ссылка
Скачать торрент
[ Размер 19.35 КБ / Просмотров 10 ]

Статус
Проверен 
 
Размер  466.37 МБ
Приватный: Нет (DHT включён)
.torrent скачан  0
 


     Отправить личное сообщение
   
Страница 1 из 1
Показать сообщения за:  Поле сортировки  
Начать новую тему Ответить на тему


Сейчас этот форум просматривают: нет зарегистрированных пользователей и гости: 0


Вы не можете начинать темы
Вы не можете отвечать на сообщения
Вы не можете редактировать свои сообщения
Вы не можете удалять свои сообщения
Вы не можете добавлять вложения

Перейти:  
cron