Начать новую тему Ответить на тему
Статистика раздачи
Размер: 227.91 МБ | Добавлен: 26 июн 2020, 17:41 | Скачали: 0
Сидеров: 0  [0 байт/сек]    Личеров: 0  [0 байт/сек]
Пред. тема | След. тема 

Автор
Сообщение

СообщениеДобавлено: 26 июн 2020, 17:41 

Ответить с цитатой 

The Fair Sex & The Invincible Spirit - The Invincible Sex (Split EP)
Жанр: EBM, Electro-Gothic
Год выпуска диска: 2004
Производитель диска: Германия
Аудио кодек: FLAC
Тип рипа: image+.cue
Битрейт аудио: lossless
Продолжительность: 25:13.08
Трэклист:
01. The Invincible Sex / The Fair Spirit
02. The Invincible Spirit / Deeper
03. The Fair Sex / The Naked and the Dead
04. The Invincible Sex / Red Glow Horizon
05. The Fair Sex / Drop of Blood (TFS.ST.600-Version)
06. The Invincible Spirit / Alphasex
07. The Invincible Sex / Your God in Me
Exact Audio Copy V0.99 prebeta 4 from 23. January 2008
Отчёт EAC об извлечении, выполненном 9. сентября 2008, 21:31
The Fair Sex & The Invincible Spirit / The Invincible Sex
Дисковод: PIONEER DVD-RW DVR-111D Adapter: 0 ID: 0
Режим чтения : Достоверность
Использование точного потока : Да
Отключение кэша аудио : Да
Использование указателей C2 : Нет
Коррекция смещения при чтении : 48
Способность читать области Lead-in и Lead-out : Нет
Заполнение пропущенных сэмплов тишиной : Да
Удаление блоков с тишиной в начале и конце : Нет
При вычислениях CRC использовались нулевые сэмплы : Да
Интерфейс : Встроенный Win32-интерфейс для Win NT/2000
Выходной формат : Пользовательский кодировщик
Выбранный битрейт : 1024 kBit/s
Качество : Высокий
Добавление ID3-тэга : Нет
Утилита сжатия : C:\Program Files\Exact Audio Copy\FLAC\FLAC.EXE
Дополнительные параметры : -8 -V -T "ARTIST=%a" -T "TITLE=%t" -T "ALBUM=%g" -T "DATE=%y" -T "TRACKNUMBER=%n" -T "GENRE=%m" -T "COMMENT=%e" %s -o %d
TOC извлечённого CD
Трек | Старт | Длительность | Начальный сектор | Конечный сектор
---------------------------------------------------------------------
1 | 0:00.00 | 1:05.30 | 0 | 4904
2 | 1:05.30 | 4:58.31 | 4905 | 27285
3 | 6:03.61 | 5:18.40 | 27286 | 51175
4 | 11:22.26 | 4:57.30 | 51176 | 73480
5 | 16:19.56 | 4:56.74 | 73481 | 95754
6 | 21:16.55 | 3:56.28 | 95755 | 113482
7 | 25:13.08 | 5:10.42 | 113483 | 136774
Характеристики диапазона извлечения и сообщения об ошибках
Выбранный диапазон
Имя файла D:\123\t\The Fair Sex & The Invincible Spirit - The Invincible Sex [2004]\The Fair Sex & The Invincible Spirit - The Invincible Sex.wav
Пиковый уровень 100.0 %
Качество диапазона 100.0 %
CRC теста 37E00803
CRC копии 37E00803
Копирование... OK
Ошибок не произошло
AccurateRip: сводка
Трек 1 нет в базе данных
Трек 2 нет в базе данных
Трек 3 нет в базе данных
Трек 4 нет в базе данных
Трек 5 нет в базе данных
Трек 6 нет в базе данных
Трек 7 нет в базе данных
Ни одного трека нет в базе AccurateRip
Конец отчёта
AUDIOCHECKER v2.0 beta (build 457) - by Dester - opdester@freemail.hu
~~~~~~~~~~~~~~~~~~~~~~~~~~~~~~~~~~
-=== DO NOT EDIT THIS FILE! ===-
Path: ...\The Fair Sex & The Invincible Spirit - The Invincible Sex [2004]
1 -=- The Fair Sex & The Invincible Spirit - The Invincible Sex.flac -=- CDDA (100%)
240842980
Доп. информация: Случается, что ветераны сцены могут так зажечь, так вдарить по клавишам своих покрывшихся пылью синтезаторов и так вдохновенно напрограммировать на новеньких "Макинтошах", как многим молодым группам и не снилось. Перед нами именно такой "клинический" случай. Две старейшие немецкие электроготические банды THE FAIR SEX и THE INVINCIBLE SPIRIT, решили вернуться на сцену и задать всем жару.
Информация взята с http://www.machinistmusic.net/reviews/theinvinciblesex.html
Правила, инструкции, FAQ!!!
Торрент  Добавлен [26 июн 2020, 17:41] Скачать торрент Магнет ссылка
Скачать торрент
[ Размер 18.58 КБ / Просмотров 11 ]

Статус
Проверен 
 
Размер  227.91 МБ
Приватный: Нет (DHT включён)
.torrent скачан  0
 


     Отправить личное сообщение
   
Страница 1 из 1
Показать сообщения за:  Поле сортировки  
Начать новую тему Ответить на тему


Сейчас этот форум просматривают: нет зарегистрированных пользователей и гости: 0


Вы не можете начинать темы
Вы не можете отвечать на сообщения
Вы не можете редактировать свои сообщения
Вы не можете удалять свои сообщения
Вы не можете добавлять вложения

Перейти:  
cron