Начать новую тему Ответить на тему
Статистика раздачи
Размер: 475.04 МБ | Добавлен: 26 июн 2020, 20:21 | Скачали: 0
Сидеров: 0  [0 байт/сек]    Личеров: 0  [0 байт/сек]
Пред. тема | След. тема 

Автор
Сообщение

СообщениеДобавлено: 26 июн 2020, 20:21 

Ответить с цитатой 

Metallspuerhunde (Metallspürhunde) / Böse Wetter
Жанр: EBM, Electro, Goth Rock
Страна-производитель диска: Germany
Год издания диска: 2009
Издатель (лейбл): Danse Macabre
Номер по каталогу: None
Страна: Switzerland
Аудио кодек: FLAC (*.flac)
Тип рипа: image+.cue
Битрейт аудио: lossless
Продолжительность: 1:00:28.50
Источник (релизер): CD из личной коллекции.
Наличие сканов в содержимом раздачи: да
Треклист:
01. Böse Wetter 5:48
02. Aus Dem Schatten 4:26
03. Wo Gehst Du Hin? 4:39
04. Heuchler 5:01
05. Herzlichen Dank 6:13
06. In Deinem Bann 4:55
07. Auf Dem Grund Des Sees 4:50
08. Sie Will Fliegen 4:15
09. Mach Es Wieder Gut 4:46
10. Hör Auf! 5:32
11. Die Letzte Grosse Fahrt (Album Version) 6:06
12. Die Letzte Grosse Fahrt (Punto-Omega-Mix) 3:51
Код:
Exact Audio Copy V0.99 prebeta 5 from 4. May 2009
Отчёт EAC об извлечении, выполненном 7. ноября 2010, 10:23
Metallspuerhunde / Bose Wetter
Дисковод: TSSTcorpCDDVDW TS-L632H   Adapter: 0  ID: 0
Режим чтения                 : Достоверность
Использование точного потока : Да
Отключение кэша аудио        : Да
Использование указателей C2  : Нет
Коррекция смещения при чтении                     : 6
Способность читать области Lead-in и Lead-out     : Нет
Заполнение пропущенных сэмплов тишиной            : Да
Удаление блоков с тишиной в начале и конце        : Нет
При вычислениях CRC использовались нулевые сэмплы : Да
Интерфейс                                         : Встроенный Win32-интерфейс для Win NT/2000
Выходной формат          : Пользовательский кодировщик
Выбранный битрейт        : 1024 kBit/s
Качество                 : Высокий
Добавление ID3-тэга      : Нет
Утилита сжатия           : C:\Program Files\Exact Audio Copy\FLAC\FLAC.EXE
Дополнительные параметры : -6 -V -T "ARTIST=%a" -T "TITLE=%t" -T "ALBUM=%g" -T "DATE=%y" -T "TRACKNUMBER=%n" -T "GENRE=%m" -T "COMMENT=%e" %s -o %d
TOC извлечённого CD
     Трек |   Старт  | Длительность | Начальный сектор | Конечный сектор
    ---------------------------------------------------------------------
       1  |  0:00.00 |    5:48.19   |           0      |      26118
       2  |  5:48.19 |    4:26.68   |       26119      |      46136
       3  | 10:15.12 |    4:39.06   |       46137      |      67067
       4  | 14:54.18 |    5:01.70   |       67068      |      89712
       5  | 19:56.13 |    6:13.27   |       89713      |     117714
       6  | 26:09.40 |    4:55.60   |      117715      |     139899
       7  | 31:05.25 |    4:50.39   |      139900      |     161688
       8  | 35:55.64 |    4:15.61   |      161689      |     180874
       9  | 40:11.50 |    4:46.34   |      180875      |     202358
      10  | 44:58.09 |    5:32.71   |      202359      |     227329
      11  | 50:31.05 |    6:06.21   |      227330      |     254800
      12  | 56:37.26 |    3:51.24   |      254801      |     272149
Характеристики диапазона извлечения и сообщения об ошибках
Выбранный диапазон
     Имя файла C:\Users\Алексей\Desktop\iPOD\Metallspuerhunde - Bose Wetter.wav
     Пиковый уровень 100.0 %
     Качество диапазона 100.0 %
     CRC теста 3F9D3ED9
     CRC копии 3F9D3ED9
     Копирование... OK
Ошибок не произошло
AccurateRip: сводка
Трек  1  точное извлечение (доверие 2)  [1727DB0D]
Трек  2  точное извлечение (доверие 2)  [61E02A1F]
Трек  3  точное извлечение (доверие 2)  [003B1C24]
Трек  4  точное извлечение (доверие 2)  [B6C05970]
Трек  5  точное извлечение (доверие 2)  [0C35F4B2]
Трек  6  точное извлечение (доверие 2)  [2EDC35C8]
Трек  7  точное извлечение (доверие 2)  [FB424D1E]
Трек  8  точное извлечение (доверие 2)  [9CAE9379]
Трек  9  точное извлечение (доверие 2)  [CE7E42CD]
Трек 10  точное извлечение (доверие 2)  [D8BA40ED]
Трек 11  точное извлечение (доверие 2)  [745B6755]
Трек 12  точное извлечение (доверие 2)  [DBA95F56]
Все треки извлечены точно
Конец отчёта
Код:
REM GENRE Electro
REM DATE 2009
REM DISCID A90E2C0C
REM COMMENT "ExactAudioCopy v0.99pb5"
PERFORMER "Metallspuerhunde"
TITLE "Bose Wetter"
FILE "Metallspuerhunde - Bose Wetter.flac" WAVE
  TRACK 01 AUDIO
    TITLE "Bose Wetter"
    PERFORMER "Metallspuerhunde"
    INDEX 01 00:00:00
  TRACK 02 AUDIO
    TITLE "Aus Dem Schatten"
    PERFORMER "Metallspuerhunde"
    INDEX 00 05:45:35
    INDEX 01 05:48:19
  TRACK 03 AUDIO
    TITLE "Wo Gehst Du Hin?"
    PERFORMER "Metallspuerhunde"
    INDEX 00 10:12:45
    INDEX 01 10:15:12
  TRACK 04 AUDIO
    TITLE "Heuchler"
    PERFORMER "Metallspuerhunde"
    INDEX 00 14:51:22
    INDEX 01 14:54:18
  TRACK 05 AUDIO
    TITLE "Herzlichen Dank"
    PERFORMER "Metallspuerhunde"
    INDEX 00 19:53:54
    INDEX 01 19:56:13
  TRACK 06 AUDIO
    TITLE "In Deinem Bann"
    PERFORMER "Metallspuerhunde"
    INDEX 00 26:07:13
    INDEX 01 26:09:40
  TRACK 07 AUDIO
    TITLE "Auf Dem Grund Des Sees"
    PERFORMER "Metallspuerhunde"
    INDEX 00 31:03:25
    INDEX 01 31:05:25
  TRACK 08 AUDIO
    TITLE "Sie Will Fliegen"
    PERFORMER "Metallspuerhunde"
    INDEX 00 35:53:43
    INDEX 01 35:55:64
  TRACK 09 AUDIO
    TITLE "Mach Es Wieder Gut"
    PERFORMER "Metallspuerhunde"
    INDEX 00 40:08:46
    INDEX 01 40:11:50
  TRACK 10 AUDIO
    TITLE "Hor Auf! "
    PERFORMER "Metallspuerhunde"
    INDEX 00 44:54:53
    INDEX 01 44:58:09
  TRACK 11 AUDIO
    TITLE "Die Letzte Grosse Fahrt (Album Version) "
    PERFORMER "Metallspuerhunde"
    INDEX 00 50:28:13
    INDEX 01 50:31:05
  TRACK 12 AUDIO
    TITLE "Die Letzte Grosse Fahrt (Punto Omega Mix)"
    PERFORMER "Metallspuerhunde"
    INDEX 00 56:34:24
    INDEX 01 56:37:26
Код:
[url=https://fastpic.ru/view/13/2011/0106/e14f9e347a4801ba8b47f18378b5979f.jpg.html][img]http://i13.fastpic.ru/thumb/2011/0106/9f/e14f9e347a4801ba8b47f18378b5979f.jpeg[/img][/url][url=https://fastpic.ru/view/13/2011/0106/ccace992208748854d85e009c389fd62.jpg.html][img]http://i13.fastpic.ru/thumb/2011/0106/62/ccace992208748854d85e009c389fd62.jpeg[/img][/url][url=https://fastpic.ru/view/13/2011/0106/7aec15430e268c6d3b17bf21089a640d.jpg.html][img]http://i13.fastpic.ru/thumb/2011/0106/0d/7aec15430e268c6d3b17bf21089a640d.jpeg[/img][/url][url=https://fastpic.ru/view/13/2011/0106/24814389c591ed1d772e9b53b0cca905.jpg.html][img]http://i13.fastpic.ru/thumb/2011/0106/05/24814389c591ed1d772e9b53b0cca905.jpeg[/img][/url]
ОГРОМНАЯ БЛАГОДАРНОСТЬ НАШЕМУ КОЛЛЕГЕ KERGARN`у ЗА СКАНЫ!!!
Правила, инструкции, FAQ!!!
Торрент  Добавлен [26 июн 2020, 20:21] Скачать торрент Магнет ссылка
Скачать торрент
[ Размер 19.86 КБ / Просмотров 5 ]

Статус
Проверен 
 
Размер  475.04 МБ
Приватный: Нет (DHT включён)
.torrent скачан  0
 


     Отправить личное сообщение
   
Страница 1 из 1
Показать сообщения за:  Поле сортировки  
Начать новую тему Ответить на тему


Сейчас этот форум просматривают: нет зарегистрированных пользователей и гости: 0


Вы не можете начинать темы
Вы не можете отвечать на сообщения
Вы не можете редактировать свои сообщения
Вы не можете удалять свои сообщения
Вы не можете добавлять вложения

Перейти:  
cron