Начать новую тему Ответить на тему
Статистика раздачи
Размер: 517.15 МБ | Добавлен: 26 июн 2020, 20:21 | Скачали: 0
Сидеров: 0  [0 байт/сек]    Личеров: 0  [0 байт/сек]
Пред. тема | След. тема 

Автор
Сообщение

СообщениеДобавлено: 26 июн 2020, 20:21 

Ответить с цитатой 

Metallspuerhunde (Metallspürhunde) / Amokmensch
Жанр: EBM, Electro, Goth Rock
Страна-производитель диска: Germany
Год издания диска: 2006
Издатель (лейбл): Danse Macabre
Номер по каталогу: KROK 133
Страна: Switzerland
Аудио кодек: FLAC (*.flac)
Тип рипа: image+.cue
Битрейт аудио: lossless
Продолжительность: 1:06:05.68
Источник (релизер): CD из личной коллекции.
Наличие сканов в содержимом раздачи: да
Треклист:
01. Amokherz 5:29
02. Metamorph 5:53
03. Obszöne Neue Welt 4:25
04. Odyssee 6:26
05. Metallspürhunde 5:13
06. -196° C 4:25
07. Clérambault 6:12
08. Cupido 5:40
09. Réduit 5:47
10. Der Weg Zu Zweit 4:51
11. Frühlingserwachen 6:06
+ Video "Obszöne Neue Welt"
Код:
Exact Audio Copy V0.99 prebeta 5 from 4. May 2009
Отчёт EAC об извлечении, выполненном 6. ноября 2010, 16:04
Metallspuerhunde / Amokmensch
Дисковод: TSSTcorpCDDVDW TS-L632H   Adapter: 0  ID: 0
Режим чтения                 : Достоверность
Использование точного потока : Да
Отключение кэша аудио        : Да
Использование указателей C2  : Нет
Коррекция смещения при чтении                     : 6
Способность читать области Lead-in и Lead-out     : Нет
Заполнение пропущенных сэмплов тишиной            : Да
Удаление блоков с тишиной в начале и конце        : Нет
При вычислениях CRC использовались нулевые сэмплы : Да
Интерфейс                                         : Встроенный Win32-интерфейс для Win NT/2000
Выходной формат          : Пользовательский кодировщик
Выбранный битрейт        : 1024 kBit/s
Качество                 : Высокий
Добавление ID3-тэга      : Нет
Утилита сжатия           : C:\Program Files\Exact Audio Copy\FLAC\FLAC.EXE
Дополнительные параметры : -6 -V -T "ARTIST=%a" -T "TITLE=%t" -T "ALBUM=%g" -T "DATE=%y" -T "TRACKNUMBER=%n" -T "GENRE=%m" -T "COMMENT=%e" %s -o %d
TOC извлечённого CD
     Трек |   Старт  | Длительность | Начальный сектор | Конечный сектор
    ---------------------------------------------------------------------
       1  |  0:00.00 |    5:29.01   |           0      |      24675
       2  |  5:29.01 |    5:53.13   |       24676      |      51163
       3  | 11:22.14 |    4:25.10   |       51164      |      71048
       4  | 15:47.24 |    6:26.41   |       71049      |     100039
       5  | 22:13.65 |    5:13.38   |      100040      |     123552
       6  | 27:27.28 |    4:25.01   |      123553      |     143428
       7  | 31:52.29 |    6:12.39   |      143429      |     171367
       8  | 38:04.68 |    5:40.73   |      171368      |     196940
       9  | 43:45.66 |    5:47.68   |      196941      |     223033
      10  | 49:33.59 |    4:51.74   |      223034      |     244932
      11  | 54:25.58 |    6:06.46   |      244933      |     272428
      12  | 63:04.29 |    5:33.39   |      283829      |     308842
Характеристики диапазона извлечения и сообщения об ошибках
Выбранный диапазон
     Имя файла C:\Users\Алексей\Desktop\iPOD\Metallspuerhunde - Amokmensch.wav
     Пиковый уровень 100.0 %
     Качество диапазона 100.0 %
     CRC теста 3B79AFCB
     CRC копии 3B79AFCB
     Копирование... OK
Ошибок не произошло
AccurateRip: сводка
Трек  1  точное извлечение (доверие 4)  [8E35C8FC]
Трек  2  точное извлечение (доверие 3)  [499BC5CD]
Трек  3  точное извлечение (доверие 3)  [A29AE01B]
Трек  4  точное извлечение (доверие 3)  [4F86B882]
Трек  5  точное извлечение (доверие 3)  [E7291B8D]
Трек  6  точное извлечение (доверие 3)  [75430EFA]
Трек  7  точное извлечение (доверие 3)  [01BFAB6A]
Трек  8  точное извлечение (доверие 3)  [250CE8E9]
Трек  9  точное извлечение (доверие 3)  [793EE1BA]
Трек 10  точное извлечение (доверие 3)  [FF7F2A09]
Трек 11  точное извлечение (доверие 3)  [768FD931]
Все треки извлечены точно
Конец отчёта
Код:
REM GENRE Electro
REM DATE 2006
REM DISCID C410150C
REM COMMENT "ExactAudioCopy v0.99pb5"
PERFORMER "Metallspuerhunde"
TITLE "Amokmensch"
FILE "Metallspuerhunde - Amokmensch.flac" WAVE
  TRACK 01 AUDIO
    TITLE "Amokherz"
    PERFORMER "Metallspuerhunde"
    INDEX 01 00:00:00
  TRACK 02 AUDIO
    TITLE "Metamorph"
    PERFORMER "Metallspuerhunde"
    INDEX 01 05:29:01
  TRACK 03 AUDIO
    TITLE "Obszцne Neue Welt"
    PERFORMER "Metallspuerhunde"
    INDEX 01 11:22:14
  TRACK 04 AUDIO
    TITLE "Odyssee"
    PERFORMER "Metallspuerhunde"
    INDEX 01 15:47:24
  TRACK 05 AUDIO
    TITLE "Metallspьrhunde"
    PERFORMER "Metallspuerhunde"
    INDEX 01 22:13:65
  TRACK 06 AUDIO
    TITLE "-196°C"
    PERFORMER "Metallspuerhunde"
    INDEX 01 27:27:28
  TRACK 07 AUDIO
    TITLE "Clйrambault"
    PERFORMER "Metallspuerhunde"
    INDEX 01 31:52:29
  TRACK 08 AUDIO
    TITLE "Cupido"
    PERFORMER "Metallspuerhunde"
    INDEX 01 38:04:68
  TRACK 09 AUDIO
    TITLE "Rйduit"
    PERFORMER "Metallspuerhunde"
    INDEX 01 43:45:66
  TRACK 10 AUDIO
    TITLE "Der Weg Zu Zweit"
    PERFORMER "Metallspuerhunde"
    INDEX 01 49:33:59
  TRACK 11 AUDIO
    TITLE "Frьhlingserwachen"
    PERFORMER "Metallspuerhunde"
    INDEX 01 54:25:58
Код:
[url=https://fastpic.ru/view/13/2011/0106/2c4a103fdfc770f4228f1c927306027e.jpg.html][img]http://i13.fastpic.ru/thumb/2011/0106/7e/2c4a103fdfc770f4228f1c927306027e.jpeg[/img][/url][url=https://fastpic.ru/view/13/2011/0106/895da8d87627ddefc4a6f3b6706b20c3.jpg.html][img]http://i13.fastpic.ru/thumb/2011/0106/c3/895da8d87627ddefc4a6f3b6706b20c3.jpeg[/img][/url][url=https://fastpic.ru/view/13/2011/0106/92e4befde55421ee8519899d5f7b26e9.jpg.html][img]http://i13.fastpic.ru/thumb/2011/0106/e9/92e4befde55421ee8519899d5f7b26e9.jpeg[/img][/url][url=https://fastpic.ru/view/13/2011/0106/933c1078487f562b519b06d97a67d658.jpg.html][img]http://i13.fastpic.ru/thumb/2011/0106/58/933c1078487f562b519b06d97a67d658.jpeg[/img][/url]
ОГРОМНАЯ БЛАГОДАРНОСТЬ НАШЕМУ КОЛЛЕГЕ KERGARN`у ЗА СКАНЫ!!!
Правила, инструкции, FAQ!!!
Торрент  Добавлен [26 июн 2020, 20:21] Скачать торрент Магнет ссылка
Скачать торрент
[ Размер 11.62 КБ / Просмотров 9 ]

Статус
Проверен 
 
Размер  517.15 МБ
Приватный: Нет (DHT включён)
.torrent скачан  0
 


     Отправить личное сообщение
   
Страница 1 из 1
Показать сообщения за:  Поле сортировки  
Начать новую тему Ответить на тему


Сейчас этот форум просматривают: нет зарегистрированных пользователей и гости: 0


Вы не можете начинать темы
Вы не можете отвечать на сообщения
Вы не можете редактировать свои сообщения
Вы не можете удалять свои сообщения
Вы не можете добавлять вложения

Перейти:  
cron