Начать новую тему Ответить на тему
Статистика раздачи
Размер: 571.55 МБ | Добавлен: 26 июн 2020, 20:15 | Скачали: 0
Сидеров: 0  [0 байт/сек]    Личеров: 0  [0 байт/сек]
Пред. тема | След. тема 

Автор
Сообщение

СообщениеДобавлено: 26 июн 2020, 20:15 

Ответить с цитатой 

[DE:AD:CIBEL] - Globalized (Gravitator Edition)
Жанр: EBM / Electro
Носитель: CD
Год издания: 2013
Издатель (лейбл): Gravitator Records
Номер по каталогу: GRR 141
Страна: Germany
Аудиокодек: FLAC (*.flac)
Тип рипа: image+.cue
Битрейт аудио: lossless
Продолжительность: 01:02:32
Источник (релизер): rd
Наличие сканов : да
Треклист:
01. Transnational Network (02:58)
02. Vanitas (04:03)
03. Stimulation (05:58)
04. Globalized (04:26)
05. Solar Plexus (06:00)
06. Rain of Gold (04:26)
07. Interculturality (04:55)
08. Beat Plastique (03:48)
09. Disconnected Child (05:29)
10. Self-Fulfilling Prophecy (04:54)
11. Russian Qi (03:56)
12. My Whole Life Is an Error Message (04:59)
13. Fuzzy Pictures (06:40)
14. Nobody Hurts Me Like I Do (davaNtage Remix) (5:30)
15. B.I.I.D. (Fastlane Mix) (3:50)
16. Attack Autorization (3:49)
Used drive : MATSHITABD-CMB UJ242AS Adapter: 0 ID: 1
Read mode : Secure
Utilize accurate stream : Yes
Defeat audio cache : Yes
Make use of C2 pointers : No
Read offset correction : 103
Overread into Lead-In and Lead-Out : No
Fill up missing offset samples with silence : Yes
Delete leading and trailing silent blocks : No
Null samples used in CRC calculations : Yes
Used interface : Installed external ASPI interface
Used output format : User Defined Encoder
Selected bitrate : 1024 kBit/s
Quality : High
Add ID3 tag : Yes
Command line compressor : C:\Program Files (x86)\Exact Audio Copy\Flac\flac.exe
Additional command line options : -V -8 -T "Date=%year%" -T "Genre=%genre%" %source%
TOC of the extracted CD
Track | Start | Length | Start sector | End sector
---------------------------------------------------------
1 | 0:00.00 | 2:58.40 | 0 | 13389
2 | 2:58.40 | 4:03.42 | 13390 | 31656
3 | 7:02.07 | 5:58.55 | 31657 | 58561
4 | 13:00.62 | 4:26.42 | 58562 | 78553
5 | 17:27.29 | 6:00.56 | 78554 | 105609
6 | 23:28.10 | 4:26.19 | 105610 | 125578
7 | 27:54.29 | 4:55.59 | 125579 | 147762
8 | 32:50.13 | 3:48.20 | 147763 | 164882
9 | 36:38.33 | 5:29.35 | 164883 | 189592
10 | 42:07.68 | 4:54.00 | 189593 | 211642
11 | 47:01.68 | 3:56.42 | 211643 | 229384
12 | 50:58.35 | 4:59.37 | 229385 | 251846
13 | 55:57.72 | 6:40.15 | 251847 | 281861
14 | 62:38.12 | 5:30.02 | 281862 | 306613
15 | 68:08.14 | 3:50.22 | 306614 | 323885
16 | 71:58.36 | 3:49.13 | 323886 | 341073
Range status and errors
Selected range
Filename C:\EACrip\DEADCIBEL - GLOBALIZED (GRAVITATOR EDITION) (GRR 141).wav
Peak level 100.0 %
Extraction speed 4.5 X
Range quality 99.9 %
Test CRC 89DD8DDF
Copy CRC 89DD8DDF
Copy OK
No errors occurred
AccurateRip summary
Track 1 not present in database
Track 2 not present in database
Track 3 not present in database
Track 4 not present in database
Track 5 not present in database
Track 6 not present in database
Track 7 not present in database
Track 8 not present in database
Track 9 not present in database
Track 10 not present in database
Track 11 not present in database
Track 12 not present in database
Track 13 not present in database
Track 14 not present in database
Track 15 not present in database
Track 16 not present in database
None of the tracks are present in the AccurateRip database
End of status report
==== Log checksum E34FCC1DD966D966592D089CB8BAD84C6FBD1CC5D7F43271A38FF894DF119432 ====
[/pre]
http://www.deadcibel.com/
Немецкая группа основана в 2010-м году в составе вокалиста Daniel Galda (бывший вокалист группы SKORBUT) и композитора Armin Kuester. Название группы является сочетанием слов «decibel» и «dead», чтобы подчеркнуть свое громкое и агрессивное звучание. Фанаты даже прозвали коллектив The German Bass Machine («немецкая бас-машина»).
[da:ni:el ga:ld:a] vocals [ar:mi:n kue:st:er] music
Правила, инструкции, FAQ!!!
Торрент  Добавлен [26 июн 2020, 20:15] Скачать торрент Магнет ссылка
Скачать торрент
[ Размер 12.5 КБ / Просмотров 10 ]

Статус
Проверен 
 
Размер  571.55 МБ
Приватный: Нет (DHT включён)
.torrent скачан  0
 


     Отправить личное сообщение
   
Страница 1 из 1
Показать сообщения за:  Поле сортировки  
Начать новую тему Ответить на тему


Сейчас этот форум просматривают: нет зарегистрированных пользователей и гости: 0


Вы не можете начинать темы
Вы не можете отвечать на сообщения
Вы не можете редактировать свои сообщения
Вы не можете удалять свои сообщения
Вы не можете добавлять вложения

Перейти:  
cron