Начать новую тему Ответить на тему
Статистика раздачи
Размер: 361.17 МБ | Добавлен: 26 июн 2020, 20:34 | Скачали: 0
Сидеров: 0  [0 байт/сек]    Личеров: 0  [0 байт/сек]
Пред. тема | След. тема 

Автор
Сообщение

СообщениеДобавлено: 26 июн 2020, 20:34 

Ответить с цитатой 

Culture Kultür / Revenge
Жанр: EBM, Electro, Futurepop
Страна-производитель диска: Germany
Год издания диска: 2001
Издатель (лейбл): Out Of Line
Номер по каталогу: OUT 068
Страна: Spain
Аудио кодек: FLAC (*.flac)
Тип рипа: image+.cue
Битрейт аудио: lossless
Продолжительность: 51:57
Источник (релизер): рип с копии
Наличие сканов в содержимом раздачи: да
Треклист:
01 Forever
02 War Is Over
03 Corruption
04 No Dogma
05 Promised Land Blues
06 Shipwreck
07 Gravity
08 Mientes
09 Europe
10 Reflex
11 Lost Ideals
Код:
Exact Audio Copy V0.99 prebeta 4 from 23. January 2008
Отчёт EAC об извлечении, выполненном 21. ноября 2010, 19:04
Culture Kultur / Revenge
Дисковод: Optiarc DVD RW AD-5200A   Adapter: 0  ID: 0
Режим чтения                 : Достоверность
Использование точного потока : Да
Отключение кэша аудио        : Да
Использование указателей C2  : Нет
Коррекция смещения при чтении                     : 48
Способность читать области Lead-in и Lead-out     : Нет
Заполнение пропущенных сэмплов тишиной            : Да
Удаление блоков с тишиной в начале и конце        : Нет
При вычислениях CRC использовались нулевые сэмплы : Да
Интерфейс                                         : Установленный внешний ASPI-интерфейс
Выходной формат : Внутренние WAV-операции
Формат сэмплов  : 44.100 Гц; 16 бит; стерео
TOC извлечённого CD
     Трек |   Старт  | Длительность | Начальный сектор | Конечный сектор
    ---------------------------------------------------------------------
       1  |  0:00.00 |    5:42.15   |           0      |      25664
       2  |  5:42.15 |    4:59.66   |       25665      |      48155
       3  | 10:42.06 |    4:22.25   |       48156      |      67830
       4  | 15:04.31 |    4:32.64   |       67831      |      88294
       5  | 19:37.20 |    5:34.02   |       88295      |     113346
       6  | 25:11.22 |    4:11.43   |      113347      |     132214
       7  | 29:22.65 |    4:09.61   |      132215      |     150950
       8  | 33:32.51 |    5:11.73   |      150951      |     174348
       9  | 38:44.49 |    3:38.74   |      174349      |     190772
      10  | 42:23.48 |    5:04.15   |      190773      |     213587
      11  | 47:27.63 |    4:30.12   |      213588      |     233849
Характеристики диапазона извлечения и сообщения об ошибках
Выбранный диапазон
     Имя файла N:\раздача\Culture Kultur -   Revenge  (2001)\Culture Kultur - Revenge.wav
     Пиковый уровень 100.0 %
     Качество диапазона 100.0 %
     CRC теста AA172831
     CRC копии AA172831
     Копирование... OK
Ошибок не произошло
AccurateRip: сводка
Трек  1  точность не определена (достоверность 5)  [4FFA1A46], AccurateRip вернул [4D8E3E33]
Трек  2  точность не определена (достоверность 5)  [4AFE3D04], AccurateRip вернул [0D1A717A]
Трек  3  точность не определена (достоверность 5)  [99F0EA85], AccurateRip вернул [E879C7D4]
Трек  4  точность не определена (достоверность 5)  [328F45D0], AccurateRip вернул [3EF4F492]
Трек  5  точность не определена (достоверность 5)  [C6156971], AccurateRip вернул [BD0A8042]
Трек  6  точность не определена (достоверность 5)  [AACE49CE], AccurateRip вернул [CFDDD2CE]
Трек  7  точность не определена (достоверность 4)  [F94BC034], AccurateRip вернул [23DF7836]
Трек  8  точность не определена (достоверность 5)  [2E6D11E4], AccurateRip вернул [0101E4B7]
Трек  9  точность не определена (достоверность 5)  [1923949D], AccurateRip вернул [EDEBE8E7]
Трек 10  точность не определена (достоверность 3)  [43CF049A], AccurateRip вернул [C67DA1E5]
Трек 11  точность не определена (достоверность 5)  [E183E5BD], AccurateRip вернул [20A5466D]
Ни один трек не прошёл проверки на точность
В вашей базе может быть иной вариант штамповки диска
Конец отчёта
Код:
AUDIOCHECKER v2.0 beta (build 457) - by Dester - opdester@freemail.hu
~~~~~~~~~~~~~~~~~~~~~~~~~~~~~~~~~~
Started at: воскресенье, 21. 11. 2010. - 19:13.39
1 file found
1 -===- N:\раздача\Culture Kultur -   Revenge  (2001)\Culture Kultur - Revenge.flac
  Extracted successfully
  Conclusion: this track is CDDA with probability 100%
  Tempfile successfully deleted.
Finished at: воскресенье, 21. 11. 2010. - 19:13.58 (operation time: 0:00.18)
Правила, инструкции, FAQ!!!
Торрент  Добавлен [26 июн 2020, 20:34] Скачать торрент Магнет ссылка
Скачать торрент
[ Размер 14.87 КБ / Просмотров 6 ]

Статус
Проверен 
 
Размер  361.17 МБ
Приватный: Нет (DHT включён)
.torrent скачан  0
 


     Отправить личное сообщение
   
Страница 1 из 1
Показать сообщения за:  Поле сортировки  
Начать новую тему Ответить на тему


Сейчас этот форум просматривают: нет зарегистрированных пользователей и гости: 0


Вы не можете начинать темы
Вы не можете отвечать на сообщения
Вы не можете редактировать свои сообщения
Вы не можете удалять свои сообщения
Вы не можете добавлять вложения

Перейти:  
cron