Начать новую тему Ответить на тему
Статистика раздачи
Размер: 494.28 МБ | Добавлен: 26 июн 2020, 20:34 | Скачали: 0
Сидеров: 0  [0 байт/сек]    Личеров: 0  [0 байт/сек]
Пред. тема | След. тема 

Автор
Сообщение

СообщениеДобавлено: 26 июн 2020, 20:34 

Ответить с цитатой 

Culture Kultür - Reflex
Жанр: EBM / Electro / Futurepop
Год выпуска диска: 1999
Производитель диска: Germany
Аудио кодек: APE
Тип рипа: image+.cue
Битрейт аудио: lossless
Продолжительность: 77:27
Трэклист:
1 Obsessed (5:14)
2 Are You Feeling Free? (Basic Mixing) (4:25)
3 Inside Of Me (Messa) (5:44)
4 Never Get Me Back (5:22)
5 Manifesto (2:58)
6 Always The Same (6:54)
7 Listen (5:29)
8 Gran Ciudad En Desorden (5:02)
9 Myself Again (Brief) (3:30)
10 No One (6:41)
11 I'm Back (Like An Emotion) (6:24)
12 Burn With Me (In Small Combustion) (4:14)
13 Crossover (5:47)
14 Daylight (4:32)
15 Got So Much (5:04)
Доп. информация: Out Of Line; OUT 033
Код:
Exact Audio Copy V0.99 prebeta 4 from 23. January 2008
EAC extraction logfile from 4. December 2008, 17:18
Culture Kultur / Reflex
Used drive  : TEAC    DV-W520GS   Adapter: 5  ID: 0
Read mode               : Secure
Utilize accurate stream : Yes
Defeat audio cache      : Yes
Make use of C2 pointers : No
Read offset correction                      : 6
Overread into Lead-In and Lead-Out          : No
Fill up missing offset samples with silence : Yes
Delete leading and trailing silent blocks   : No
Null samples used in CRC calculations       : Yes
Used interface                              : Installed external ASPI interface
Used output format : Internal WAV Routines
Sample format      : 44.100 Hz; 16 Bit; Stereo
TOC of the extracted CD
     Track |   Start  |  Length  | Start sector | End sector
    ---------------------------------------------------------
        1  |  0:00.00 |  5:14.47 |         0  |       23596
        2  |  5:14.47 |  4:25.38 |     23597  |       43509
        3  |  9:40.10 |  5:44.60 |     43510  |       69369
        4  | 15:24.70 |  5:22.66 |     69370  |       93585
        5  | 20:47.61 |  2:58.63 |     93586  |      106998
        6  | 23:46.49 |  6:54.05 |    106999  |      138053
        7  | 30:40.54 |  5:29.54 |    138054  |      162782
        8  | 36:10.33 |  5:02.54 |    162783  |      185486
        9  | 41:13.12 |  3:30.01 |    185487  |      201237
       10  | 44:43.13 |  6:41.29 |    201238  |      231341
       11  | 51:24.42 |  6:24.21 |    231342  |      260162
       12  | 57:48.63 |  4:14.55 |    260163  |      279267
       13  | 62:03.43 |  5:47.16 |    279268  |      305308
       14  | 67:50.59 |  4:32.06 |    305309  |      325714
       15  | 72:22.65 |  5:04.27 |    325715  |      348541
Range status and errors
Selected range
   Filename J:\Culture Kultur - Reflex\CDImage.wav
   Peak level 96.6 %
   Range quality 100.0 %
   Test CRC 6617EF40
   Copy CRC 6617EF40
   Copy OK
No errors occurred
AccurateRip summary
Track  1  not present in database
Track  2  not present in database
Track  3  not present in database
Track  4  not present in database
Track  5  not present in database
Track  6  not present in database
Track  7  not present in database
Track  8  not present in database
Track  9  not present in database
Track 10  not present in database
Track 11  not present in database
Track 12  not present in database
Track 13  not present in database
Track 14  not present in database
Track 15  not present in database
None of the tracks are present in the AccurateRip database
End of status report
Код:
AUDIOCHECKER v2.0 beta (build 457) - by Dester - opdester@freemail.hu
~~~~~~~~~~~~~~~~~~~~~~~~~~~~~~~~~~
-=== DO NOT EDIT THIS FILE! ===-
Path: ...\Culture Kultur - Reflex
01 -=- CDImage.wav -=- CDDA (100%)
190127764
Правила, инструкции, FAQ!!!
Торрент  Добавлен [26 июн 2020, 20:34] Скачать торрент Магнет ссылка
Скачать торрент
[ Размер 20.13 КБ / Просмотров 10 ]

Статус
Проверен 
 
Размер  494.28 МБ
Приватный: Нет (DHT включён)
.torrent скачан  0
 


     Отправить личное сообщение
   
Страница 1 из 1
Показать сообщения за:  Поле сортировки  
Начать новую тему Ответить на тему


Сейчас этот форум просматривают: нет зарегистрированных пользователей и гости: 0


Вы не можете начинать темы
Вы не можете отвечать на сообщения
Вы не можете редактировать свои сообщения
Вы не можете удалять свои сообщения
Вы не можете добавлять вложения

Перейти:  
cron