Начать новую тему Ответить на тему
Статистика раздачи
Размер: 429.58 МБ | Добавлен: 26 июн 2020, 20:07 | Скачали: 0
Сидеров: 0  [0 байт/сек]    Личеров: 0  [0 байт/сек]
Пред. тема | След. тема 

Автор
Сообщение

СообщениеДобавлено: 26 июн 2020, 20:07 

Ответить с цитатой 

X-Fusion - Ultima Ratio
Жанр: EBM, Electro
Год выпуска диска: 2009
Страна: Germany
Аудио кодек: FLAC
Тип рипа: image+.cue
Битрейт аудио: lossless
Продолжительность: 00:57:58
Трэклист:
01 The Calm BeforeThe Storm
02 Leave No Seed
03 House Of Mirrors
04 Psychopath
05 Burn Down The Flags
06 Ultima Ratio
07 Follow Your Leader
08 Rise And Fall
09 Exspes
10 Still Breathing
11 Already Dead
12 Daily Dose
13 Inferno
Код:
Exact Audio Copy V0.99 prebeta 5 from 4. May 2009
Отчёт EAC об извлечении, выполненном 20. ноября 2009, 21:06
X-Fusion / Ultima Ratio
Дисковод: PLEXTOR DVDR   PX-820SA   Adapter: 2  ID: 0
Режим чтения                 : Достоверность
Использование точного потока : Да
Отключение кэша аудио        : Да
Использование указателей C2  : Нет
Коррекция смещения при чтении                     : 48
Способность читать области Lead-in и Lead-out     : Нет
Заполнение пропущенных сэмплов тишиной            : Да
Удаление блоков с тишиной в начале и конце        : Нет
При вычислениях CRC использовались нулевые сэмплы : Да
Интерфейс                                         : Установленный внешний ASPI-интерфейс
Выходной формат          : Пользовательский кодировщик
Выбранный битрейт        : 1024 kBit/s
Качество                 : Высокий
Добавление ID3-тэга      : Нет
Утилита сжатия           : C:\Program Files\Exact Audio Copy\FLAC\FLAC.EXE
Дополнительные параметры : -8 -V -T "ARTIST=%a" -T "TITLE=%t" -T "ALBUM=%g" -T "DATE=%y" -T "TRACKNUMBER=%n" -T "GENRE=%m" -T "COMMENT=%e" %s -o %d
TOC извлечённого CD
     Трек |   Старт  | Длительность | Начальный сектор | Конечный сектор
    ---------------------------------------------------------------------
       1  |  0:00.00 |    1:41.15   |           0      |       7589
       2  |  1:41.15 |    4:01.74   |        7590      |      25738
       3  |  5:43.14 |    5:34.15   |       25739      |      50803
       4  | 11:17.29 |    4:45.34   |       50804      |      72212
       5  | 16:02.63 |    4:25.28   |       72213      |      92115
       6  | 20:28.16 |    4:39.22   |       92116      |     113062
       7  | 25:07.38 |    4:50.10   |      113063      |     134822
       8  | 29:57.48 |    3:45.03   |      134823      |     151700
       9  | 33:42.51 |    4:50.36   |      151701      |     173486
      10  | 38:33.12 |    5:54.15   |      173487      |     200051
      11  | 44:27.27 |    4:05.38   |      200052      |     218464
      12  | 48:32.65 |    5:54.74   |      218465      |     245088
      13  | 54:27.64 |    3:30.11   |      245089      |     260849
Характеристики диапазона извлечения и сообщения об ошибках
Выбранный диапазон
     Имя файла E:\Torrent Download\X-Fusion - Ultima Ratio (2009)\X-Fusion - Ultima Ratio.wav
     Пиковый уровень 99.7 %
     Качество диапазона 100.0 %
     CRC теста 78037C04
     CRC копии 78037C04
     Копирование... OK
Ошибок не произошло
Конец отчёта
Код:
AUDIOCHECKER v2.0 beta (build 457) - by Dester - opdester@freemail.hu
~~~~~~~~~~~~~~~~~~~~~~~~~~~~~~~~~~
-=== НЕ РЕДАКТИРУЙТЕ ЭТОТ ФАЙЛ! ===-
Путь: ...\X-Fusion - Ultima Ratio (2009)
1 -=- X-Fusion - Ultima Ratio.flac -=- CDDA (100%)
120906788
Правила, инструкции, FAQ!!!
Торрент  Добавлен [26 июн 2020, 20:07] Скачать торрент Магнет ссылка
Скачать торрент
[ Размер 17.96 КБ / Просмотров 8 ]

Статус
Проверен 
 
Размер  429.58 МБ
Приватный: Нет (DHT включён)
.torrent скачан  0
 


     Отправить личное сообщение
   
Страница 1 из 1
Показать сообщения за:  Поле сортировки  
Начать новую тему Ответить на тему


Сейчас этот форум просматривают: нет зарегистрированных пользователей и гости: 0


Вы не можете начинать темы
Вы не можете отвечать на сообщения
Вы не можете редактировать свои сообщения
Вы не можете удалять свои сообщения
Вы не можете добавлять вложения

Перейти:  
cron
cron