Начать новую тему Ответить на тему
Статистика раздачи
Размер: 537.21 МБ | Добавлен: 26 июн 2020, 16:58 | Скачали: 0
Сидеров: 0  [0 байт/сек]    Личеров: 0  [0 байт/сек]
Пред. тема | След. тема 

Автор
Сообщение

СообщениеДобавлено: 26 июн 2020, 16:58 

Ответить с цитатой 

In-Fused / Misplaced
Жанр: EBM, Electro
Страна-производитель диска: Canada
Год издания диска: 2004
Издатель (лейбл): DSBP
Номер по каталогу: #1061
Страна: USA
Аудио кодек: FLAC (*.flac)
Тип рипа: image+.cue
Битрейт аудио: lossless
Продолжительность: 1:16:03
Источник (релизер): личный CD
Наличие сканов в содержимом раздачи: нет
Треклист:
1 Enter Now 2:55
2 Evacuate 4:45
3 Misplaced 5:57
4 Hammered 3:45
5 Beardies 3:19
6 Breaking The Code 5:06
7 A Place To Bleed 4:17
8 Punch Hole 4:27
9 Find To Keep 7:16
10 Monotony 3:24
11 Blinded Fools 4:46
12 Mud Slipperz 3:49
13 Zonex 3:59
14 Wrapped In Plastique 3:39
15 Evacuate (Diverje Re-Mix) 4:48
16 Weightless 3:21
17 Malfunkt 3:29
18 Beneath 3:00
Код:
Exact Audio Copy V0.99 prebeta 5 from 4. May 2009
EAC extraction logfile from 14. December 2010, 14:05
In-Fused / Misplaced
Used drive  : _NEC    DVD_RW ND-3520AW   Adapter: 6  ID: 0
Read mode               : Secure
Utilize accurate stream : Yes
Defeat audio cache      : Yes
Make use of C2 pointers : No
Read offset correction                      : 48
Overread into Lead-In and Lead-Out          : No
Fill up missing offset samples with silence : Yes
Delete leading and trailing silent blocks   : No
Null samples used in CRC calculations       : Yes
Used interface                              : Native Win32 interface for Win NT & 2000
Used output format              : User Defined Encoder
Selected bitrate                : 1024 kBit/s
Quality                         : High
Add ID3 tag                     : No
Command line compressor         : C:\Program Files (x86)\Exact Audio Copy\FLAC\FLAC.EXE
Additional command line options : -T "DATE=%y" -T "GENRE=%m" -8 -V %s
TOC of the extracted CD
     Track |   Start  |  Length  | Start sector | End sector
    ---------------------------------------------------------
        1  |  0:00.00 |  2:55.18 |         0    |    13142
        2  |  2:55.18 |  4:44.74 |     13143    |    34516
        3  |  7:40.17 |  5:57.10 |     34517    |    61301
        4  | 13:37.27 |  3:45.33 |     61302    |    78209
        5  | 17:22.60 |  3:18.60 |     78210    |    93119
        6  | 20:41.45 |  5:06.13 |     93120    |   116082
        7  | 25:47.58 |  4:17.34 |    116083    |   135391
        8  | 30:05.17 |  4:27.08 |    135392    |   155424
        9  | 34:32.25 |  7:16.04 |    155425    |   188128
       10  | 41:48.29 |  3:23.73 |    188129    |   203426
       11  | 45:12.27 |  4:45.70 |    203427    |   224871
       12  | 49:58.22 |  3:48.43 |    224872    |   242014
       13  | 53:46.65 |  3:59.09 |    242015    |   259948
       14  | 57:45.74 |  3:39.30 |    259949    |   276403
       15  | 61:25.29 |  4:47.74 |    276404    |   298002
       16  | 66:13.28 |  3:21.23 |    298003    |   313100
       17  | 69:34.51 |  3:29.17 |    313101    |   328792
       18  | 73:03.68 |  3:00.07 |    328793    |   342299
Range status and errors
Selected range
     Filename D:\In-Fused - Misplaced.wav
     Peak level 100.0 %
     Range quality 99.9 %
     Test CRC 15D79BCB
     Copy CRC 15D79BCB
     Copy OK
No errors occurred
AccurateRip summary
Track  1  not present in database
Track  2  not present in database
Track  3  not present in database
Track  4  not present in database
Track  5  not present in database
Track  6  not present in database
Track  7  not present in database
Track  8  not present in database
Track  9  not present in database
Track 10  not present in database
Track 11  not present in database
Track 12  not present in database
Track 13  not present in database
Track 14  not present in database
Track 15  not present in database
Track 16  not present in database
Track 17  not present in database
Track 18  not present in database
None of the tracks are present in the AccurateRip database
End of status report
Правила, инструкции, FAQ!!!
Торрент  Добавлен [26 июн 2020, 16:58] Скачать торрент Магнет ссылка
Скачать торрент
[ Размер 11.09 КБ / Просмотров 4 ]

Статус
Проверен 
 
Размер  537.21 МБ
Приватный: Нет (DHT включён)
.torrent скачан  0
 


     Отправить личное сообщение
   
Страница 1 из 1
Показать сообщения за:  Поле сортировки  
Начать новую тему Ответить на тему


Сейчас этот форум просматривают: нет зарегистрированных пользователей и гости: 0


Вы не можете начинать темы
Вы не можете отвечать на сообщения
Вы не можете редактировать свои сообщения
Вы не можете удалять свои сообщения
Вы не можете добавлять вложения

Перейти:  
cron