Начать новую тему Ответить на тему
Статистика раздачи
Размер: 584.36 МБ | Добавлен: 26 июн 2020, 17:29 | Скачали: 0
Сидеров: 0  [0 байт/сек]    Личеров: 0  [0 байт/сек]
Пред. тема | След. тема 

Автор
Сообщение

СообщениеДобавлено: 26 июн 2020, 17:29 

Ответить с цитатой 

Funker Vogt / Execution Tracks [Special Limited Fan Edition]

Жанр: EBM, Electro
Страна-производитель диска: Germany
Год издания: 1998
Издатель / лейбл: Zoth Ommog
Номер по каталогу: CD ZOT 225XL
Формат издания: CD, Album, Limited Edition, Digipack
База данных Discogs: релиз
Страна: Germany
Аудиокодек: FLAC (*.flac)
Тип рипа: image+.cue (secure, test & copy)
Битрейт аудио: lossless
Продолжительность: 1:13:06.40
Источник: Личная коллекция
Наличие сканов в содержимом раздачи: Да (600 dpi, .jpg)
Треклист:
01. Civil War 7:26
02. The Voices Of The Dead 5:25
03. The International Killer 6:12
04. Fortunes Of War 5:01
05. Beyond Your Believe 6:41
06. Tragic Hero 5:09
07. Buried Alive 5:56
08. Schizophrenia 4:52
09. Pure War 4:55
10. Shaven 5:41
11. Seelenwanderung 4:29
12. 4th Dimension 6:00
13. Black Rain 5:13
Код:
Exact Audio Copy V1.0 beta 3 from 29. August 2011
Отчёт EAC об извлечении, выполненном 29. сентября 2012, 16:44
Funker Vogt / Execution Tracks
Дисковод: PIONEER DVD-RW  DVR-XD10   Adapter: 1  ID: 0
Режим чтения                 : Достоверность
Использование точного потока : Да
Отключение кэша аудио        : Да
Использование указателей C2  : Нет
Коррекция смещения при чтении                     : 96
Способность читать области Lead-in и Lead-out     : Нет
Заполнение пропущенных сэмплов тишиной            : Да
Удаление блоков с тишиной в начале и конце        : Нет
При вычислениях CRC использовались нулевые сэмплы : Да
Интерфейс                                         : Встроенный Win32-интерфейс для Win NT/2000
Выходной формат          : Пользовательский кодировщик
Выбранный битрейт        : 1024 kBit/s
Качество                 : Высокий
Добавление ID3-тега      : Нет
Утилита сжатия           : C:\Program Files\Exact Audio Copy\FLAC\FLAC.EXE
Дополнительные параметры : -V -8 -T "Date=%year%" -T "Genre=%genre%" %source%
TOC извлечённого CD
     Трек |   Старт  | Длительность | Начальный сектор | Конечный сектор
    ---------------------------------------------------------------------
       1  |  0:00.00 |    7:26.50   |           0      |      33499
       2  |  7:26.50 |    5:25.47   |       33500      |      57921
       3  | 12:52.22 |    6:12.17   |       57922      |      85838
       4  | 19:04.39 |    5:01.35   |       85839      |     108448
       5  | 24:05.74 |    6:41.24   |      108449      |     138547
       6  | 30:47.23 |    5:09.46   |      138548      |     161768
       7  | 35:56.69 |    5:56.67   |      161769      |     188535
       8  | 41:53.61 |    4:52.24   |      188536      |     210459
       9  | 46:46.10 |    4:55.18   |      210460      |     232602
      10  | 51:41.28 |    5:41.53   |      232603      |     258230
      11  | 57:23.06 |    4:29.47   |      258231      |     278452
      12  | 61:52.53 |    6:00.51   |      278453      |     305503
      13  | 67:53.29 |    5:13.11   |      305504      |     328989
Характеристики диапазона извлечения и сообщения об ошибках
Выбранный диапазон
     Имя файла C:\Users\Алексей\Desktop\iPOD\Funker Vogt - Execution Tracks.wav
     Пиковый уровень 100.0 %
     Скорость извлечения 4.5 X
     Качество диапазона 100.0 %
     CRC теста 5AAA5C7C
     CRC копии 5AAA5C7C
     Копирование... OK
Ошибок не произошло
AccurateRip: сводка
Трек  1  отсутствует в базе данных
Трек  2  отсутствует в базе данных
Трек  3  отсутствует в базе данных
Трек  4  отсутствует в базе данных
Трек  5  отсутствует в базе данных
Трек  6  отсутствует в базе данных
Трек  7  отсутствует в базе данных
Трек  8  отсутствует в базе данных
Трек  9  отсутствует в базе данных
Трек 10  отсутствует в базе данных
Трек 11  отсутствует в базе данных
Трек 12  отсутствует в базе данных
Трек 13  отсутствует в базе данных
Ни одного трека нет в базе AccurateRip
Конец отчёта
==== Контрольная сумма отчёта 23476E9E544252F52DC4C43BB3EDEEE2A5B9C5D1E05A879A42DA630338F7856C ====
Код:
REM GENRE EBM
REM DATE 1998
REM DISCID BB11220D
REM COMMENT "ExactAudioCopy v1.0b3"
CATALOG 0000000000000
PERFORMER "Funker Vogt"
TITLE "Execution Tracks"
FILE "Funker Vogt - Execution Tracks.flac" WAVE
  TRACK 01 AUDIO
    TITLE "Civil War"
    PERFORMER "Funker Vogt"
    FLAGS DCP
    INDEX 01 00:00:00
  TRACK 02 AUDIO
    TITLE "The Voices Of The Dead"
    PERFORMER "Funker Vogt"
    FLAGS DCP
    INDEX 00 07:25:05
    INDEX 01 07:26:50
  TRACK 03 AUDIO
    TITLE "The International Killer"
    PERFORMER "Funker Vogt"
    FLAGS DCP
    INDEX 00 12:50:52
    INDEX 01 12:52:22
  TRACK 04 AUDIO
    TITLE "Fortunes Of War"
    PERFORMER "Funker Vogt"
    FLAGS DCP
    INDEX 00 19:02:69
    INDEX 01 19:04:39
  TRACK 05 AUDIO
    TITLE "Beyond Your Believe"
    PERFORMER "Funker Vogt"
    FLAGS DCP
    INDEX 00 24:04:29
    INDEX 01 24:05:74
  TRACK 06 AUDIO
    TITLE "Tragic Hero"
    PERFORMER "Funker Vogt"
    FLAGS DCP
    INDEX 00 30:45:53
    INDEX 01 30:47:23
  TRACK 07 AUDIO
    TITLE "Buried Alive"
    PERFORMER "Funker Vogt"
    FLAGS DCP
    INDEX 00 35:55:24
    INDEX 01 35:56:69
  TRACK 08 AUDIO
    TITLE "Schizophrenia"
    PERFORMER "Funker Vogt"
    FLAGS DCP
    INDEX 00 41:52:16
    INDEX 01 41:53:61
  TRACK 09 AUDIO
    TITLE "Pure War"
    PERFORMER "Funker Vogt"
    FLAGS DCP
    INDEX 00 46:44:40
    INDEX 01 46:46:10
  TRACK 10 AUDIO
    TITLE "Shaven"
    PERFORMER "Funker Vogt"
    FLAGS DCP
    INDEX 00 51:39:58
    INDEX 01 51:41:28
  TRACK 11 AUDIO
    TITLE "Seelenwanderung"
    PERFORMER "Funker Vogt"
    FLAGS DCP
    INDEX 00 57:21:36
    INDEX 01 57:23:06
  TRACK 12 AUDIO
    TITLE "4th Dimension"
    PERFORMER "Funker Vogt"
    FLAGS DCP
    INDEX 00 61:51:08
    INDEX 01 61:52:53
  TRACK 13 AUDIO
    TITLE "Black Rain"
    PERFORMER "Funker Vogt"
    FLAGS DCP
    INDEX 00 67:51:59
    INDEX 01 67:53:29
Правила, инструкции, FAQ!!!
Торрент  Добавлен [26 июн 2020, 17:29] Скачать торрент Магнет ссылка
Скачать торрент
[ Размер 12.9 КБ / Просмотров 11 ]

Статус
Проверен 
 
Размер  584.36 МБ
Приватный: Нет (DHT включён)
.torrent скачан  0
 


     Отправить личное сообщение
   
Страница 1 из 1
Показать сообщения за:  Поле сортировки  
Начать новую тему Ответить на тему


Сейчас этот форум просматривают: нет зарегистрированных пользователей и гости: 0


Вы не можете начинать темы
Вы не можете отвечать на сообщения
Вы не можете редактировать свои сообщения
Вы не можете удалять свои сообщения
Вы не можете добавлять вложения

Перейти:  
cron