Начать новую тему Ответить на тему
Статистика раздачи
Размер: 333.41 МБ | Добавлен: 26 июн 2020, 17:35 | Скачали: 0
Сидеров: 0  [0 байт/сек]    Личеров: 0  [0 байт/сек]
Пред. тема | След. тема 

Автор
Сообщение

СообщениеДобавлено: 26 июн 2020, 17:35 

Ответить с цитатой 

Fortification 55 / Atlantis
Жанр: EBM,Electro
Страна-производитель диска: Germany
Год издания диска: 1994
Издатель (лейбл): Glasnost Records
Аудио кодек: FLAC (*.flac)
Тип рипа: image+.cue
Битрейт аудио: lossless
Источник (релизер): свой рип
Наличие сканов в содержимом раздачи: да
Треклист:
1 Atlantis I 4:05
2 Desire 4:18
3 Rain Down 5:40
4 Atlantis II 2:39
5 Atlantis III 1:56
6 And Tomorrow Atlantis 4:54
7 Heartbeat 4:50
8 Tears Run Rings 4:49
9 Changing My Exist (Tranceorgastic Mix) 7:56
10 Holy War (Live) 3:58
11 Tibet Gate 3:54
Код:
Exact Audio Copy V0.99 prebeta 5 from 4. May 2009
Отчёт EAC об извлечении, выполненном 26. ноября 2010, 13:31
Fortification 55 / atlantis
Дисковод: ASUS    DRW-24B1LT   Adapter: 2  ID: 2
Режим чтения                 : Достоверность
Использование точного потока : Да
Отключение кэша аудио        : Да
Использование указателей C2  : Нет
Коррекция смещения при чтении                     : 6
Способность читать области Lead-in и Lead-out     : Нет
Заполнение пропущенных сэмплов тишиной            : Да
Удаление блоков с тишиной в начале и конце        : Нет
При вычислениях CRC использовались нулевые сэмплы : Да
Интерфейс                                         : Встроенный Win32-интерфейс для Win NT/2000
Выходной формат          : Пользовательский кодировщик
Выбранный битрейт        : 1024 kBit/s
Качество                 : Высокий
Добавление ID3-тэга      : Нет
Утилита сжатия           : C:\Program Files\Exact Audio Copy\FLAC\FLAC.EXE
Дополнительные параметры : -8 -V -T "ARTIST=%a" -T "TITLE=%t" -T "ALBUM=%g" -T "DATE=%y" -T "TRACKNUMBER=%n" -T "GENRE=%m" -T "COMMENT=%e" %s -o %d
TOC извлечённого CD
     Трек |   Старт  | Длительность | Начальный сектор | Конечный сектор
    ---------------------------------------------------------------------
       1  |  0:00.00 |    4:05.05   |           0      |      18379
       2  |  4:05.05 |    4:18.57   |       18380      |      37786
       3  |  8:23.62 |    5:40.33   |       37787      |      63319
       4  | 14:04.20 |    2:39.20   |       63320      |      75264
       5  | 16:43.40 |    1:56.55   |       75265      |      84019
       6  | 18:40.20 |    4:54.67   |       84020      |     106136
       7  | 23:35.12 |    4:50.18   |      106137      |     127904
       8  | 28:25.30 |    4:49.45   |      127905      |     149624
       9  | 33:15.00 |    7:56.42   |      149625      |     185366
      10  | 41:11.42 |    3:58.33   |      185367      |     203249
      11  | 45:10.00 |    3:54.00   |      203250      |     220799
Характеристики диапазона извлечения и сообщения об ошибках
Выбранный диапазон
     Имя файла D:\Мои документы\раздачи\Fortification 55-Atlantis\Fortification 55 - atlantis.wav
     Пиковый уровень 99.9 %
     Качество диапазона 100.0 %
     CRC теста A1717299
     CRC копии A1717299
     Копирование... OK
Ошибок не произошло
Конец отчёта
Код:
AUDIOCHECKER v2.0 beta (build 457) - by Dester - opdester@freemail.hu
~~~~~~~~~~~~~~~~~~~~~~~~~~~~~~~~~~
-=== DO NOT EDIT THIS FILE! ===-
Path: ...\Fortification 55-Atlantis
1 -=- Fortification 55 - atlantis.flac -=- CDDA (100%)
37033668
Правила, инструкции, FAQ!!!
Торрент  Добавлен [26 июн 2020, 17:35] Скачать торрент Магнет ссылка
Скачать торрент
[ Размер 13.81 КБ / Просмотров 8 ]

Статус
Проверен 
 
Размер  333.41 МБ
Приватный: Нет (DHT включён)
.torrent скачан  0
 


     Отправить личное сообщение
   
Страница 1 из 1
Показать сообщения за:  Поле сортировки  
Начать новую тему Ответить на тему


Сейчас этот форум просматривают: нет зарегистрированных пользователей и гости: 0


Вы не можете начинать темы
Вы не можете отвечать на сообщения
Вы не можете редактировать свои сообщения
Вы не можете удалять свои сообщения
Вы не можете добавлять вложения

Перейти:  
cron