Начать новую тему Ответить на тему
Статистика раздачи
Размер: 532.58 МБ | Добавлен: 26 июн 2020, 16:49 | Скачали: 0
Сидеров: 0  [0 байт/сек]    Личеров: 0  [0 байт/сек]
Пред. тема | След. тема 

Автор
Сообщение

СообщениеДобавлено: 26 июн 2020, 16:49 

Ответить с цитатой 

Fiction 8 / Forever, Neverafter
Жанр: EBM,Electro
Страна-производитель диска: Russia
Год издания диска: 2006
Издатель (лейбл): Shadowplay
Номер по каталогу: SPR012
Страна: USA
Аудио кодек: FLAC (*.flac)
Тип рипа: image+.cue
Битрейт аудио: lossless
Продолжительность: 71:29
Источник (релизер): Собственный диск
Наличие сканов в содержимом раздачи: нет
Треклист:
1 Too Late
2 Crash (Broken Chrome)
3 The Dark Room
4 Winter Rain
5 Around And Around
6 Forgive Me
7 Nothing More
8 Save Me From Myself
9 Stranger In My Skin
10 Silent
11 Winding Down
Russian Version Bonus Tracks
12 Stranger In My Skin (Tristraum Remix)
13 Crash (Twisted Metal Remix)
14 Save Me From Myself (Eternal Loathe Mix)
Код:
Exact Audio Copy V0.99 prebeta 3 from 28. July 2007
Отчёт EAC об извлечении, выполненном 3. ноября 2010, 21:02
Fiction 8 / Forever, Neverafter
Дисковод: TEAC    DW-548D   Adapter: 1  ID: 1
Режим чтения                 : Достоверность
Использование точного потока : Да
Отключение кэша аудио        : Да
Использование указателей C2  : Нет
Коррекция смещения при чтении                     : 6
Способность читать области Lead-in и Lead-out     : Нет
Заполнение пропущенных сэмплов тишиной            : Да
Удаление блоков с тишиной в начале и конце        : Нет
При вычислениях CRC использовались нулевые сэмплы : Да
Интерфейс                                         : Установленный внешний ASPI-интерфейс
Выходной формат          : Пользовательский кодировщик
Выбранный битрейт        : 768 kBit/s
Качество                 : Высокий
Добавление ID3-тэга      : Нет
Утилита сжатия           : C:\Program Files\Exact Audio Copy\FLAC\FLAC.EXE
Дополнительные параметры : -6 -V -T "ARTIST=%a" -T "TITLE=%t" -T "ALBUM=%g" -T "DATE=%y" -T "TRACKNUMBER=%n" -T "GENRE=%m" -T "COMMENT=%e" %s -o %d
TOC извлечённого CD
     Трек |   Старт  | Длительность | Начальный сектор | Конечный сектор
    ---------------------------------------------------------------------
       1  |  0:00.00 |    5:48.40   |           0      |      26139
       2  |  5:48.40 |    5:49.06   |       26140      |      52320
       3  | 11:37.46 |    5:24.68   |       52321      |      76688
       4  | 17:02.39 |    4:36.27   |       76689      |      97415
       5  | 21:38.66 |    5:14.71   |       97416      |     121036
       6  | 26:53.62 |    5:06.08   |      121037      |     143994
       7  | 31:59.70 |    4:44.33   |      143995      |     165327
       8  | 36:44.28 |    4:55.52   |      165328      |     187504
       9  | 41:40.05 |    5:08.32   |      187505      |     210636
      10  | 46:48.37 |    3:29.18   |      210637      |     226329
      11  | 50:17.55 |    5:37.20   |      226330      |     251624
      12  | 55:55.00 |    4:31.52   |      251625      |     272001
      13  | 60:26.52 |    6:02.04   |      272002      |     299155
      14  | 66:28.56 |    4:58.33   |      299156      |     321538
Характеристики диапазона извлечения и сообщения об ошибках
Выбранный диапазон
     Имя файла H:\Раздача\Fiction 8-2003-Forever,Neverafter\Fiction 8 - Forever, Neverafter.wav
     Пиковый уровень 99.9 %
     Качество диапазона 100.0 %
     CRC копии 4F660B28
     Копирование... OK
Ошибок не произошло
AccurateRip: сводка
Трек  1  точное извлечение (доверие 1)  [508A75FC]
Трек  2  точное извлечение (доверие 1)  [C7619845]
Трек  3  точное извлечение (доверие 1)  [0A57DE7B]
Трек  4  точное извлечение (доверие 1)  [F08181C6]
Трек  5  точное извлечение (доверие 1)  [3A0202DA]
Трек  6  точное извлечение (доверие 1)  [950DD7F8]
Трек  7  точное извлечение (доверие 1)  [3348439F]
Трек  8  точное извлечение (доверие 1)  [A91F0DD3]
Трек  9  точное извлечение (доверие 1)  [7889A91E]
Трек 10  точное извлечение (доверие 1)  [C932514D]
Трек 11  точное извлечение (доверие 1)  [457DD690]
Трек 12  точное извлечение (доверие 1)  [058552AA]
Трек 13  точное извлечение (доверие 1)  [15B91812]
Трек 14  точное извлечение (доверие 1)  [DDDCB44B]
Все треки извлечены точно
Конец отчёта
Доп. информация: Альбом вышел в 2003 году , на нашей лицензии в 2006 году соответственно.
Mardi Salazar, Michael Smith, Steven Hart
Правила, инструкции, FAQ!!!
Торрент  Добавлен [26 июн 2020, 16:49] Скачать торрент Магнет ссылка
Скачать торрент
[ Размер 11.04 КБ / Просмотров 5 ]

Статус
Проверен 
 
Размер  532.58 МБ
Приватный: Нет (DHT включён)
.torrent скачан  0
 


     Отправить личное сообщение
   
Страница 1 из 1
Показать сообщения за:  Поле сортировки  
Начать новую тему Ответить на тему


Сейчас этот форум просматривают: нет зарегистрированных пользователей и гости: 0


Вы не можете начинать темы
Вы не можете отвечать на сообщения
Вы не можете редактировать свои сообщения
Вы не можете удалять свои сообщения
Вы не можете добавлять вложения

Перейти:  
cron