Начать новую тему Ответить на тему
Статистика раздачи
Размер: 440.73 МБ | Добавлен: 26 июн 2020, 17:16 | Скачали: 0
Сидеров: 0  [0 байт/сек]    Личеров: 0  [0 байт/сек]
Пред. тема | След. тема 

Автор
Сообщение

СообщениеДобавлено: 26 июн 2020, 17:16 

Ответить с цитатой 

Fiction 8 - Chaotica
Жанр: EBM, Electro
Год выпуска диска: 2005
Год выпуска альбома: 2000
Производитель диска: РФ/ Shadowplay
Аудио кодек: APE
Тип рипа: image+.cue
Битрейт аудио: lossless
Источник: Рип с личного СД
Продолжительность: 01:01:00
Трэклист:
01. Chaotika
02. Let Go
03. Sister Illusion
04. Set You Free
05. Somnambule
06. It's Over Now
07. Break the Line
08. Stasis
09. Neverwhere
10. I Scare Myself
11. Let Go (degenetron.rv10.08.cygnus)
12. Somnambule (anachron 130 remix)
13. Let Go (Epsilon Minus remix)
Код:
Exact Audio Copy V0.99 prebeta 5 from 4. May 2009
Отчёт EAC об извлечении, выполненном 8. сентября 2009, 20:23
Fiction 8 / Chaotica
Дисковод: Optiarc DVD RW AD-7201S   Adapter: 1  ID: 1
Режим чтения                 : Достоверность
Использование точного потока : Да
Отключение кэша аудио        : Да
Использование указателей C2  : Нет
Коррекция смещения при чтении                     : 48
Способность читать области Lead-in и Lead-out     : Нет
Заполнение пропущенных сэмплов тишиной            : Да
Удаление блоков с тишиной в начале и конце        : Нет
При вычислениях CRC использовались нулевые сэмплы : Да
Интерфейс                                         : Установленный внешний
ASPI-интерфейс
Выходной формат : Внутренние WAV-операции
Формат сэмплов  : 44.100 Гц; 16 бит; стерео
TOC извлечённого CD
     Трек |   Старт  | Длительность | Начальный сектор | Конечный сектор
    ---------------------------------------------------------------------
       1  |  0:00.00 |    2:16.04   |           0      |      10203
       2  |  2:16.04 |    4:34.25   |       10204      |      30778
       3  |  6:50.29 |    6:07.19   |       30779      |      58322
       4  | 12:57.48 |    5:10.26   |       58323      |      81598
       5  | 18:07.74 |    3:58.66   |       81599      |      99514
       6  | 22:06.65 |    5:07.57   |       99515      |     122596
       7  | 27:14.47 |    5:35.69   |      122597      |     147790
       8  | 32:50.41 |    4:43.36   |      147791      |     169051
       9  | 37:34.02 |    4:57.00   |      169052      |     191326
      10  | 42:31.02 |    5:41.14   |      191327      |     216915
      11  | 48:12.16 |    4:17.25   |      216916      |     236215
      12  | 52:29.41 |    4:43.06   |      236216      |     257446
      13  | 57:12.47 |    3:35.35   |      257447      |     273606
Характеристики диапазона извлечения и сообщения об ошибках
Выбранный диапазон
     Имя файла D:\Documents and Settings\Rodexx\Рабочий стол\Fiction 8 -
Chaotica\Fiction 8 - Chaotica.wav
     Пиковый уровень 100.0 %
     Качество диапазона 99.9 %
     CRC теста 3D62D7A2
     CRC копии 3D62D7A2
     Копирование... OK
Ошибок не произошло
Конец отчёта
Код:
Started at: вторник, 08. 09. 2009. - 20:36.20
1 file found
1 -===- D:\Documents and Settings\Rodexx\Рабочий стол\Fiction 8 - Chaotica\Fiction 8 - Chaotica.ape
  Extracted successfully
  Conclusion: this track is CDDA with probability 100%
  Tempfile successfully deleted.
Finished at: вторник, 08. 09. 2009. - 20:43.44 (operation time: 0:07.23)
Label: Shadowplay Release
Catalog#: SPR 011
Format: CD, Album, Reissue
Country: Russia
Released: Dec 2005
Genre: Electronic
Style: EBM, Electro, Synth-pop
HQ Scans Full Complete
Правила, инструкции, FAQ!!!
Торрент  Добавлен [26 июн 2020, 17:16] Скачать торрент Магнет ссылка
Скачать торрент
[ Размер 18.07 КБ / Просмотров 11 ]

Статус
Проверен 
 
Размер  440.73 МБ
Приватный: Нет (DHT включён)
.torrent скачан  0
 


     Отправить личное сообщение
   
Страница 1 из 1
Показать сообщения за:  Поле сортировки  
Начать новую тему Ответить на тему


Сейчас этот форум просматривают: нет зарегистрированных пользователей и гости: 0


Вы не можете начинать темы
Вы не можете отвечать на сообщения
Вы не можете редактировать свои сообщения
Вы не можете удалять свои сообщения
Вы не можете добавлять вложения

Перейти:  
cron