Начать новую тему Ответить на тему
Статистика раздачи
Размер: 320.42 МБ | Добавлен: 26 июн 2020, 20:19 | Скачали: 0
Сидеров: 0  [0 байт/сек]    Личеров: 0  [0 байт/сек]
Пред. тема | След. тема 

Автор
Сообщение

СообщениеДобавлено: 26 июн 2020, 20:19 

Ответить с цитатой 

Escalator / Out Of My Ego
Жанр: EBM, Electro
Страна-производитель диска: Italy
Год издания диска: 2011
Издатель (лейбл): EK Product
Номер по каталогу: EKPCD 001
Страна: Hungary
Аудио кодек: FLAC (*.flac)
Тип рипа: image+.cue
Битрейт аудио: lossless
Продолжительность: 0:43:44.64
Источник (релизер): CD из личной коллекции.
Наличие сканов в содержимом раздачи: да
Треклист:
01. Bad Constellation 4:43
02. Rew Stop Play 5:41
03. Out Of My Ego 4:36
04. Deeply Buried Psychosis 5:13
05. Shut Me Off 4:51
06. Strike 4:31
07. Biological Countdown 4:30
08. Gepek Lesztek 9:40
Discogs
Код:
Exact Audio Copy V0.99 prebeta 5 from 4. May 2009
Отчёт EAC об извлечении, выполненном 15. апреля 2011, 13:17
Escalator / Out Of My Ego
Дисковод: TSSTcorpCDDVDW TS-L632H   Adapter: 0  ID: 0
Режим чтения                 : Достоверность
Использование точного потока : Да
Отключение кэша аудио        : Да
Использование указателей C2  : Нет
Коррекция смещения при чтении                     : 6
Способность читать области Lead-in и Lead-out     : Нет
Заполнение пропущенных сэмплов тишиной            : Да
Удаление блоков с тишиной в начале и конце        : Нет
При вычислениях CRC использовались нулевые сэмплы : Да
Интерфейс                                         : Встроенный Win32-интерфейс для Win NT/2000
Выходной формат          : Пользовательский кодировщик
Выбранный битрейт        : 1024 kBit/s
Качество                 : Высокий
Добавление ID3-тэга      : Нет
Утилита сжатия           : C:\Program Files\Exact Audio Copy\FLAC\FLAC.EXE
Дополнительные параметры : -6 -V -T "ARTIST=%a" -T "TITLE=%t" -T "ALBUM=%g" -T "DATE=%y" -T "TRACKNUMBER=%n" -T "GENRE=%m" -T "COMMENT=%e" %s -o %d
TOC извлечённого CD
     Трек |   Старт  | Длительность | Начальный сектор | Конечный сектор
    ---------------------------------------------------------------------
       1  |  0:00.00 |    4:42.62   |           0      |      21211
       2  |  4:42.62 |    5:40.49   |       21212      |      46760
       3  | 10:23.36 |    4:36.21   |       46761      |      67481
       4  | 14:59.57 |    5:13.05   |       67482      |      90961
       5  | 20:12.62 |    4:50.45   |       90962      |     112756
       6  | 25:03.32 |    4:31.01   |      112757      |     133082
       7  | 29:34.33 |    4:30.31   |      133083      |     153363
       8  | 34:04.64 |    9:40.00   |      153364      |     196863
Характеристики диапазона извлечения и сообщения об ошибках
Выбранный диапазон
     Имя файла C:\Users\Алексей\Desktop\iPOD\Escalator - Out Of My Ego.wav
     Пиковый уровень 98.8 %
     Качество диапазона 100.0 %
     CRC теста B030F461
     CRC копии B030F461
     Копирование... OK
Ошибок не произошло
AccurateRip: сводка
Трек  1  нет в базе данных
Трек  2  нет в базе данных
Трек  3  нет в базе данных
Трек  4  нет в базе данных
Трек  5  нет в базе данных
Трек  6  нет в базе данных
Трек  7  нет в базе данных
Трек  8  нет в базе данных
Ни одного трека нет в базе AccurateRip
Конец отчёта
Код:
REM GENRE "EBM Industrial"
REM DATE 2011
REM DISCID 5B0A4008
REM COMMENT "ExactAudioCopy v0.99pb5"
PERFORMER "Escalator"
TITLE "Out Of My Ego"
FILE "Escalator - Out Of My Ego.flac" WAVE
  TRACK 01 AUDIO
    TITLE "Bad Constellation"
    PERFORMER "Escalator"
    INDEX 01 00:00:00
  TRACK 02 AUDIO
    TITLE "Rew Stop Play"
    PERFORMER "Escalator"
    INDEX 01 04:42:62
  TRACK 03 AUDIO
    TITLE "Out Of My Ego"
    PERFORMER "Escalator"
    INDEX 01 10:23:36
  TRACK 04 AUDIO
    TITLE "Deeply Buried Psychosis"
    PERFORMER "Escalator"
    INDEX 01 14:59:57
  TRACK 05 AUDIO
    TITLE "Shut Me Off"
    PERFORMER "Escalator"
    INDEX 01 20:12:62
  TRACK 06 AUDIO
    TITLE "Strike"
    PERFORMER "Escalator"
    INDEX 01 25:03:32
  TRACK 07 AUDIO
    TITLE "Biological Countdown"
    PERFORMER "Escalator"
    INDEX 01 29:34:33
  TRACK 08 AUDIO
    TITLE "Gepek Lesztek"
    PERFORMER "Escalator"
    INDEX 01 34:04:64
Код:
[url=https://fastpic.ru/view/4/2011/0519/9e50d4e7ebbb98c5e2ad783ad070f524.jpg.html][img]http://i4.fastpic.ru/thumb/2011/0519/24/9e50d4e7ebbb98c5e2ad783ad070f524.jpeg[/img][/url][url=https://fastpic.ru/view/4/2011/0519/427cbecace2f02e1d72507b844880755.jpg.html][img]http://i4.fastpic.ru/thumb/2011/0519/55/427cbecace2f02e1d72507b844880755.jpeg[/img][/url][url=https://fastpic.ru/view/17/2011/0519/eee158355ad89d88528ec3a556b7353a.jpg.html][img]http://i17.fastpic.ru/thumb/2011/0519/3a/eee158355ad89d88528ec3a556b7353a.jpeg[/img][/url][url=https://fastpic.ru/view/11/2011/0519/f0d5d3f7794fc2948d9ff3609e3531b9.jpg.html][img]http://i11.fastpic.ru/thumb/2011/0519/b9/f0d5d3f7794fc2948d9ff3609e3531b9.jpeg[/img][/url]
Выражаю благодарность kergarn`у за HQ scans!
Правила, инструкции, FAQ!!!
Торрент  Добавлен [26 июн 2020, 20:19] Скачать торрент Магнет ссылка
Скачать торрент
[ Размер 13.47 КБ / Просмотров 8 ]

Статус
Проверен 
 
Размер  320.42 МБ
Приватный: Нет (DHT включён)
.torrent скачан  0
 


     Отправить личное сообщение
   
Страница 1 из 1
Показать сообщения за:  Поле сортировки  
Начать новую тему Ответить на тему


Сейчас этот форум просматривают: нет зарегистрированных пользователей и гости: 0


Вы не можете начинать темы
Вы не можете отвечать на сообщения
Вы не можете редактировать свои сообщения
Вы не можете удалять свои сообщения
Вы не можете добавлять вложения

Перейти:  
cron