Начать новую тему Ответить на тему
Статистика раздачи
Размер: 438.55 МБ | Добавлен: 26 июн 2020, 20:19 | Скачали: 0
Сидеров: 0  [0 байт/сек]    Личеров: 0  [0 байт/сек]
Пред. тема | След. тема 

Автор
Сообщение

СообщениеДобавлено: 26 июн 2020, 20:19 

Ответить с цитатой 

Escalator / Antologia 1989-2009
Жанр: EBM, Electro
Страна-производитель диска: Germany
Год издания диска: 2009
Издатель (лейбл): Electric Tremor Dessau
Номер по каталогу: ETD 017 CD
Страна: Hungary
Аудио кодек: FLAC (*.flac)
Тип рипа: image+.cue
Битрейт аудио: lossless
Продолжительность: 1:09:36.18
Источник (релизер): CD из личной коллекции.
Наличие сканов в содержимом раздачи: да
Треклист:
01. Danke! 0:50
02. Szamitogepes Lovagok 3:56
03. Andromeda 3:29
04. Error 3:07
05. Hivom A Multat (Archiv) 5:45
06. Analizis 6:46
07. Offenziva 5:03
08. M.V.K.V. 3:23
09. Helicopter 4:07
10. Idozitett Bomba 3:04
11. Hivom A Multat 5:14
12. Anatomia (V.02) 5:07
13. Szamitogepes Lovagok (live) 5:40
14. Anatomia (live) 5:06
15. Idozitett Bomba (live) 4:14
16. Hivom A Multat (live) 5:09
Код:
Exact Audio Copy V0.99 prebeta 5 from 4. May 2009
Отчёт EAC об извлечении, выполненном 27. ноября 2010, 15:53
Escalator / Antologia 1989-2009
Дисковод: TSSTcorpCDDVDW TS-L632H   Adapter: 0  ID: 0
Режим чтения                 : Достоверность
Использование точного потока : Да
Отключение кэша аудио        : Да
Использование указателей C2  : Нет
Коррекция смещения при чтении                     : 6
Способность читать области Lead-in и Lead-out     : Нет
Заполнение пропущенных сэмплов тишиной            : Да
Удаление блоков с тишиной в начале и конце        : Нет
При вычислениях CRC использовались нулевые сэмплы : Да
Интерфейс                                         : Встроенный Win32-интерфейс для Win NT/2000
Выходной формат          : Пользовательский кодировщик
Выбранный битрейт        : 1024 kBit/s
Качество                 : Высокий
Добавление ID3-тэга      : Нет
Утилита сжатия           : C:\Program Files\Exact Audio Copy\FLAC\FLAC.EXE
Дополнительные параметры : -6 -V -T "ARTIST=%a" -T "TITLE=%t" -T "ALBUM=%g" -T "DATE=%y" -T "TRACKNUMBER=%n" -T "GENRE=%m" -T "COMMENT=%e" %s -o %d
TOC извлечённого CD
     Трек |   Старт  | Длительность | Начальный сектор | Конечный сектор
    ---------------------------------------------------------------------
       1  |  0:02.00 |    0:52.14   |         150      |       4063
       2  |  0:54.14 |    3:57.73   |        4064      |      21911
       3  |  4:52.12 |    3:31.40   |       21912      |      37776
       4  |  8:23.52 |    3:09.51   |       37777      |      52002
       5  | 11:33.28 |    5:47.49   |       52003      |      78076
       6  | 17:21.02 |    5:48.49   |       78077      |     104225
       7  | 23:09.51 |    5:05.56   |      104226      |     127156
       8  | 28:15.32 |    3:25.68   |      127157      |     142599
       9  | 31:41.25 |    4:09.02   |      142600      |     161276
      10  | 35:50.27 |    3:06.33   |      161277      |     175259
      11  | 38:56.60 |    5:16.59   |      175260      |     199018
      12  | 44:13.44 |    5:09.49   |      199019      |     222242
      13  | 49:23.18 |    5:42.00   |      222243      |     247892
      14  | 55:05.18 |    5:08.00   |      247893      |     270992
      15  | 60:13.18 |    4:16.00   |      270993      |     290192
      16  | 64:29.18 |    5:09.00   |      290193      |     313367
Характеристики диапазона извлечения и сообщения об ошибках
Выбранный диапазон
     Имя файла C:\Users\Алексей\Desktop\iPOD\Escalator - Antologia 1989-2009.wav
     Пиковый уровень 100.0 %
     Качество диапазона 100.0 %
     CRC теста 9BE8B3F2
     CRC копии 9BE8B3F2
     Копирование... OK
Ошибок не произошло
AccurateRip: сводка
Трек  1  нет в базе данных
Трек  2  нет в базе данных
Трек  3  нет в базе данных
Трек  4  нет в базе данных
Трек  5  нет в базе данных
Трек  6  нет в базе данных
Трек  7  нет в базе данных
Трек  8  нет в базе данных
Трек  9  нет в базе данных
Трек 10  нет в базе данных
Трек 11  нет в базе данных
Трек 12  нет в базе данных
Трек 13  нет в базе данных
Трек 14  нет в базе данных
Трек 15  нет в базе данных
Трек 16  нет в базе данных
Ни одного трека нет в базе AccurateRip
Конец отчёта
Код:
REM GENRE EBM
REM DATE 2009
REM DISCID E7105010
REM COMMENT "ExactAudioCopy v0.99pb5"
PERFORMER "Escalator"
TITLE "Antologia 1989-2009"
FILE "Escalator - Antologia 1989-2009.flac" WAVE
  TRACK 01 AUDIO
    TITLE "Danke! "
    PERFORMER "Escalator"
    INDEX 00 00:00:00
    INDEX 01 00:02:00
  TRACK 02 AUDIO
    TITLE "Szamitogepes Lovagok "
    PERFORMER "Escalator"
    INDEX 00 00:52:14
    INDEX 01 00:54:14
  TRACK 03 AUDIO
    TITLE "Andromeda "
    PERFORMER "Escalator"
    INDEX 00 04:50:12
    INDEX 01 04:52:12
  TRACK 04 AUDIO
    TITLE "Error "
    PERFORMER "Escalator"
    INDEX 00 08:21:52
    INDEX 01 08:23:52
  TRACK 05 AUDIO
    TITLE "Hivom A Multat (Archiv)"
    PERFORMER "Escalator"
    INDEX 00 11:31:28
    INDEX 01 11:33:28
  TRACK 06 AUDIO
    TITLE "Analizis "
    PERFORMER "Escalator"
    INDEX 00 17:19:02
    INDEX 01 17:21:02
  TRACK 07 AUDIO
    TITLE "Offenziva "
    PERFORMER "Escalator"
    INDEX 00 23:07:51
    INDEX 01 23:09:51
  TRACK 08 AUDIO
    TITLE "M.V.K.V."
    PERFORMER "Escalator"
    INDEX 00 28:13:32
    INDEX 01 28:15:32
  TRACK 09 AUDIO
    TITLE "Helicopter "
    PERFORMER "Escalator"
    INDEX 00 31:39:25
    INDEX 01 31:41:25
  TRACK 10 AUDIO
    TITLE "Idozitett Bomba"
    PERFORMER "Escalator"
    INDEX 00 35:48:27
    INDEX 01 35:50:27
  TRACK 11 AUDIO
    TITLE "Hivom A Multat "
    PERFORMER "Escalator"
    INDEX 00 38:54:60
    INDEX 01 38:56:60
  TRACK 12 AUDIO
    TITLE "Anatomia (V.02)"
    PERFORMER "Escalator"
    INDEX 00 44:11:44
    INDEX 01 44:13:44
  TRACK 13 AUDIO
    TITLE "Szamitogepes Lovagok (Live At BeatClub Dessau 2008-02-02) "
    PERFORMER "Escalator"
    INDEX 00 49:21:18
    INDEX 01 49:23:18
  TRACK 14 AUDIO
    TITLE "Anatomia (Live At BeatClub Dessau 2008-02-02)"
    PERFORMER "Escalator"
    INDEX 00 55:03:18
    INDEX 01 55:05:18
  TRACK 15 AUDIO
    TITLE "Idozitett Bomba (Live At BeatClub Dessau 2008-02-02) "
    PERFORMER "Escalator"
    INDEX 00 60:11:18
    INDEX 01 60:13:18
  TRACK 16 AUDIO
    TITLE "Hivom A Multat (Live At BeatClub Dessau 2008-02-02)"
    PERFORMER "Escalator"
    INDEX 00 64:27:18
    INDEX 01 64:29:18
ОГРОМНАЯ БЛАГОДАРНОСТЬ НАШЕМУ КОЛЛЕГЕ KERGARN`у ЗА СКАНЫ!!!
Правила, инструкции, FAQ!!!
Торрент  Добавлен [26 июн 2020, 20:19] Скачать торрент Магнет ссылка
Скачать торрент
[ Размер 18.04 КБ / Просмотров 8 ]

Статус
Проверен 
 
Размер  438.55 МБ
Приватный: Нет (DHT включён)
.torrent скачан  0
 


     Отправить личное сообщение
   
Страница 1 из 1
Показать сообщения за:  Поле сортировки  
Начать новую тему Ответить на тему


Сейчас этот форум просматривают: нет зарегистрированных пользователей и гости: 0


Вы не можете начинать темы
Вы не можете отвечать на сообщения
Вы не можете редактировать свои сообщения
Вы не можете удалять свои сообщения
Вы не можете добавлять вложения

Перейти:  
cron