Начать новую тему Ответить на тему
Статистика раздачи
Размер: 289.39 МБ | Добавлен: 26 июн 2020, 16:54 | Скачали: 0
Сидеров: 0  [0 байт/сек]    Личеров: 0  [0 байт/сек]
Пред. тема | След. тема 

Автор
Сообщение

СообщениеДобавлено: 26 июн 2020, 16:54 

Ответить с цитатой 

Elite! / Totenkopf
Жанр: EBM, Electro
Страна-производитель диска: USA
Год издания диска: 2009
Издатель (лейбл): Black Montanas
Номер по каталогу: MU 114
Страна: France
Аудио кодек: FLAC (*.flac)
Тип рипа: image+.cue
Битрейт аудио: lossless
Продолжительность: 0:38:46.42
Источник (релизер): CD из личной коллекции.
Наличие сканов в содержимом раздачи: да
Треклист:
01. Maschinen 3:32
02. Der Abgrund 2:36
03. Harte Liebe 3:05
04. Der Eisentanz 3:44
05. Totenkopf 3:56
06. Muskelmann 3:02
07. Kantinengirl 2:09
08. Mein Madchen 3:14
09. Volle Kraft Zurueck 3:33
10. Mein Madchen (Oldschool Mix) 3:14
11. Totenkopf (Frontal Remix) 4:13
12. Maschinen (1987 Mix By Ekobrottsmyndigheten) 2:26
Discogs
Код:
Exact Audio Copy V0.99 prebeta 5 from 4. May 2009
Отчёт EAC об извлечении, выполненном 12. января 2011, 9:55
Elite! / Totenkopf
Дисковод: TSSTcorpCDDVDW TS-L632H   Adapter: 0  ID: 0
Режим чтения                 : Достоверность
Использование точного потока : Да
Отключение кэша аудио        : Да
Использование указателей C2  : Нет
Коррекция смещения при чтении                     : 6
Способность читать области Lead-in и Lead-out     : Нет
Заполнение пропущенных сэмплов тишиной            : Да
Удаление блоков с тишиной в начале и конце        : Нет
При вычислениях CRC использовались нулевые сэмплы : Да
Интерфейс                                         : Встроенный Win32-интерфейс для Win NT/2000
Выходной формат          : Пользовательский кодировщик
Выбранный битрейт        : 1024 kBit/s
Качество                 : Высокий
Добавление ID3-тэга      : Нет
Утилита сжатия           : C:\Program Files\Exact Audio Copy\FLAC\FLAC.EXE
Дополнительные параметры : -6 -V -T "ARTIST=%a" -T "TITLE=%t" -T "ALBUM=%g" -T "DATE=%y" -T "TRACKNUMBER=%n" -T "GENRE=%m" -T "COMMENT=%e" %s -o %d
TOC извлечённого CD
     Трек |   Старт  | Длительность | Начальный сектор | Конечный сектор
    ---------------------------------------------------------------------
       1  |  0:00.00 |    3:32.00   |           0      |      15899
       2  |  3:32.00 |    2:36.48   |       15900      |      27647
       3  |  6:08.48 |    3:05.00   |       27648      |      41522
       4  |  9:13.48 |    3:44.00   |       41523      |      58322
       5  | 12:57.48 |    3:56.00   |       58323      |      76022
       6  | 16:53.48 |    3:02.00   |       76023      |      89672
       7  | 19:55.48 |    2:09.37   |       89673      |      99384
       8  | 22:05.10 |    3:14.07   |       99385      |     113941
       9  | 25:19.17 |    3:33.15   |      113942      |     129931
      10  | 28:52.32 |    3:14.00   |      129932      |     144481
      11  | 32:06.32 |    4:13.18   |      144482      |     163474
      12  | 36:19.50 |    2:26.67   |      163475      |     174491
Характеристики диапазона извлечения и сообщения об ошибках
Выбранный диапазон
     Имя файла C:\Users\Алексей\Desktop\iPOD\Elite! - Totenkopf.wav
     Пиковый уровень 100.0 %
     Качество диапазона 100.0 %
     CRC теста 25E2187C
     CRC копии 25E2187C
     Копирование... OK
Ошибок не произошло
AccurateRip: сводка
Трек  1  нет в базе данных
Трек  2  нет в базе данных
Трек  3  нет в базе данных
Трек  4  нет в базе данных
Трек  5  нет в базе данных
Трек  6  нет в базе данных
Трек  7  нет в базе данных
Трек  8  нет в базе данных
Трек  9  нет в базе данных
Трек 10  нет в базе данных
Трек 11  нет в базе данных
Трек 12  нет в базе данных
Ни одного трека нет в базе AccurateRip
Конец отчёта
Код:
REM GENRE EBM
REM DATE 2009
REM DISCID 9709160C
REM COMMENT "ExactAudioCopy v0.99pb5"
PERFORMER "Elite!"
TITLE "Totenkopf"
FILE "Elite! - Totenkopf.flac" WAVE
  TRACK 01 AUDIO
    TITLE "Maschinen"
    PERFORMER "Elite!"
    FLAGS DCP
    INDEX 01 00:00:00
  TRACK 02 AUDIO
    TITLE "Der Abgrund"
    PERFORMER "Elite!"
    FLAGS DCP
    INDEX 00 03:30:00
    INDEX 01 03:32:00
  TRACK 03 AUDIO
    TITLE "Harte Liebe"
    PERFORMER "Elite!"
    FLAGS DCP
    INDEX 00 06:06:48
    INDEX 01 06:08:48
  TRACK 04 AUDIO
    TITLE "Der Eisentanz"
    PERFORMER "Elite!"
    FLAGS DCP
    INDEX 00 09:11:48
    INDEX 01 09:13:48
  TRACK 05 AUDIO
    TITLE "Totenkopf"
    PERFORMER "Elite!"
    FLAGS DCP
    INDEX 00 12:55:48
    INDEX 01 12:57:48
  TRACK 06 AUDIO
    TITLE "Muskelmann"
    PERFORMER "Elite!"
    FLAGS DCP
    INDEX 00 16:51:48
    INDEX 01 16:53:48
  TRACK 07 AUDIO
    TITLE "Kantinengirl"
    PERFORMER "Elite!"
    FLAGS DCP
    INDEX 00 19:53:48
    INDEX 01 19:55:48
  TRACK 08 AUDIO
    TITLE "Mein Maedchen"
    PERFORMER "Elite!"
    FLAGS DCP
    INDEX 00 22:03:10
    INDEX 01 22:05:10
  TRACK 09 AUDIO
    TITLE "Volle Kraft Zurueck"
    PERFORMER "Elite!"
    FLAGS DCP
    INDEX 00 25:17:17
    INDEX 01 25:19:17
  TRACK 10 AUDIO
    TITLE "Mein Maedchen (Oldschool Mix)"
    PERFORMER "Elite!"
    FLAGS DCP
    INDEX 00 28:50:32
    INDEX 01 28:52:32
  TRACK 11 AUDIO
    TITLE "Totenkopf (Frontal Remix)"
    PERFORMER "Elite!"
    FLAGS DCP
    INDEX 00 32:04:32
    INDEX 01 32:06:32
  TRACK 12 AUDIO
    TITLE "Maschinen (1987-Mix by EkoBrottsMyndigheten)"
    PERFORMER "Elite!"
    FLAGS DCP
    INDEX 00 36:17:50
    INDEX 01 36:19:50
Код:
[url=https://fastpic.ru/view/19/2011/0415/36d2f448a6b5bb50fcdc85f8cc813afb.jpg.html][img]http://i19.fastpic.ru/thumb/2011/0415/fb/36d2f448a6b5bb50fcdc85f8cc813afb.jpeg[/img][/url][url=https://fastpic.ru/view/19/2011/0415/905d739d91e5da5e858f7859dbd8229a.jpg.html][img]http://i19.fastpic.ru/thumb/2011/0415/9a/905d739d91e5da5e858f7859dbd8229a.jpeg[/img][/url][url=https://fastpic.ru/view/19/2011/0415/47d073adc624a907067b39f4bc28f0c9.jpg.html][img]http://i19.fastpic.ru/thumb/2011/0415/c9/47d073adc624a907067b39f4bc28f0c9.jpeg[/img][/url][url=https://fastpic.ru/view/19/2011/0415/ae1f045bc38660ead15593084c15e45f.jpg.html][img]http://i19.fastpic.ru/thumb/2011/0415/5f/ae1f045bc38660ead15593084c15e45f.jpeg[/img][/url]
Выражаю благодарность kergarn'у за HQ scans!
Правила, инструкции, FAQ!!!
Торрент  Добавлен [26 июн 2020, 16:54] Скачать торрент Магнет ссылка
Скачать торрент
[ Размер 12.36 КБ / Просмотров 5 ]

Статус
Проверен 
 
Размер  289.39 МБ
Приватный: Нет (DHT включён)
.torrent скачан  0
 


     Отправить личное сообщение
   
Страница 1 из 1
Показать сообщения за:  Поле сортировки  
Начать новую тему Ответить на тему


Сейчас этот форум просматривают: нет зарегистрированных пользователей и гости: 0


Вы не можете начинать темы
Вы не можете отвечать на сообщения
Вы не можете редактировать свои сообщения
Вы не можете удалять свои сообщения
Вы не можете добавлять вложения

Перейти:  
cron