Начать новую тему Ответить на тему
Статистика раздачи
Размер: 1.59 ГБ | Добавлен: 26 июн 2020, 17:09 | Скачали: 0
Сидеров: 0  [0 байт/сек]    Личеров: 0  [0 байт/сек]
Пред. тема | След. тема 

Автор
Сообщение

СообщениеДобавлено: 26 июн 2020, 17:09 

Ответить с цитатой 

Digital Blood / Discography
Жанр: EBM, Electro, Electronic
Носитель: CDR
Год издания: 1994-1999
Издатель (лейбл): Boredom Product
Страна: France
Аудиокодек: FLAC (*.flac)
Тип рипа: tracks+.cue
Битрейт аудио: lossless
Источник (релизер): original Boredom Product CDR
Наличие сканов в содержимом раздачи: нет
Код:
[imgright]http://i68.fastpic.ru/big/2014/0911/a1/770adf0d0d9e0ea297c2d210ef37f0a1.jpg[/imgright]01 Endless Time 04:42
02 Near The Frontier 05:12
03 Carthage Propagande 04:13
04 Easy Girl 06:40
05 Paleo Technic Age 05:48
06 Stop Withstanding 05:58
07 Space Machine 05:37
08 Clear Alert 03:24
09 Factory 03:31
10 Unknown Lie 02:52
11 Still Alone 04:22
12 Plague 04:26
REM GENRE EBM
REM DATE 1994
REM DISCID B50D530C
REM COMMENT "ExactAudioCopy v1.0b3"
PERFORMER "Digital Blood"
TITLE "A Retrospective"
FILE "Digital Blood - A Retrospective.wav" WAVE
TRACK 01 AUDIO
TITLE "Endless Time"
PERFORMER "Digital Blood"
INDEX 01 00:00:00
TRACK 02 AUDIO
TITLE "Near The Frontier"
PERFORMER "Digital Blood"
INDEX 00 04:40:58
INDEX 01 04:42:57
TRACK 03 AUDIO
TITLE "Carthage Propagande"
PERFORMER "Digital Blood"
INDEX 00 09:53:29
INDEX 01 09:55:29
TRACK 04 AUDIO
TITLE "Easy Girl"
PERFORMER "Digital Blood"
INDEX 00 14:07:14
INDEX 01 14:09:13
TRACK 05 AUDIO
TITLE "Paleo Technic Age"
PERFORMER "Digital Blood"
INDEX 00 20:47:39
INDEX 01 20:49:38
TRACK 06 AUDIO
TITLE "Stop Withstanding"
PERFORMER "Digital Blood"
INDEX 00 26:35:64
INDEX 01 26:37:63
TRACK 07 AUDIO
TITLE "Space Machine"
PERFORMER "Digital Blood"
INDEX 00 32:34:18
INDEX 01 32:36:17
TRACK 08 AUDIO
TITLE "Clear Alert"
PERFORMER "Digital Blood"
INDEX 00 38:12:04
INDEX 01 38:14:03
TRACK 09 AUDIO
TITLE "Factory"
PERFORMER "Digital Blood"
INDEX 00 41:36:31
INDEX 01 41:38:30
TRACK 10 AUDIO
TITLE "Unknown Lie"
PERFORMER "Digital Blood"
INDEX 00 45:08:07
INDEX 01 45:10:06
TRACK 11 AUDIO
TITLE "Still Alone"
PERFORMER "Digital Blood"
INDEX 00 48:00:47
INDEX 01 48:02:46
TRACK 12 AUDIO
TITLE "Plague"
PERFORMER "Digital Blood"
INDEX 00 52:22:71
INDEX 01 52:24:70
Exact Audio Copy V1.0 beta 3 from 29. August 2011
EAC extraction logfile from 23. April 2014, 16:37
Digital Blood / A Retrospective
Used drive : MATSHITADVD-RAM UJ8A0AS Adapter: 1 ID: 0
Read mode : Secure
Utilize accurate stream : Yes
Defeat audio cache : Yes
Make use of C2 pointers : No
Read offset correction : 102
Overread into Lead-In and Lead-Out : No
Fill up missing offset samples with silence : Yes
Delete leading and trailing silent blocks : No
Null samples used in CRC calculations : Yes
Used interface : Native Win32 interface for Win NT & 2000
Gap handling : Appended to previous track
Used output format : Internal WAV Routines
Sample format : 44.100 Hz; 16 Bit; Stereo
TOC of the extracted CD
Track | Start | Length | Start sector | End sector
---------------------------------------------------------
1 | 0:00.00 | 4:42.57 | 0 | 21206
2 | 4:42.57 | 5:12.47 | 21207 | 44653
3 | 9:55.29 | 4:13.59 | 44654 | 63687
4 | 14:09.13 | 6:40.25 | 63688 | 93712
5 | 20:49.38 | 5:48.25 | 93713 | 119837
6 | 26:37.63 | 5:58.29 | 119838 | 146716
7 | 32:36.17 | 5:37.61 | 146717 | 172052
8 | 38:14.03 | 3:24.27 | 172053 | 187379
9 | 41:38.30 | 3:31.51 | 187380 | 203255
10 | 45:10.06 | 2:52.40 | 203256 | 216195
11 | 48:02.46 | 4:22.24 | 216196 | 235869
12 | 52:24.70 | 4:26.19 | 235870 | 255838
Track 1
Filename C:\Users\VAIO\Downloads\Digital Blood - A Retrospective (1994)\01 Endless Time.wav
Pre-gap length 0:00:02.00
Peak level 72.6 %
Extraction speed 2.7 X
Track quality 100.0 %
Test CRC 38D59D51
Copy CRC 38D59D51
Track not present in AccurateRip database
Copy OK
Track 2
Filename C:\Users\VAIO\Downloads\Digital Blood - A Retrospective (1994)\02 Near The Frontier.wav
Pre-gap length 0:00:01.74
Peak level 74.6 %
Extraction speed 3.0 X
Track quality 100.0 %
Test CRC B5FB1978
Copy CRC B5FB1978
Track not present in AccurateRip database
Copy OK
Track 3
Filename C:\Users\VAIO\Downloads\Digital Blood ‎- A Retrospective (1994)\03 Carthage Propagande.wav
Pre-gap length 0:00:02.00
Peak level 100.0 %
Extraction speed 3.3 X
Track quality 100.0 %
Test CRC 23367A66
Copy CRC 23367A66
Track not present in AccurateRip database
Copy OK
Track 4
Filename C:\Users\VAIO\Downloads\Digital Blood - A Retrospective (1994)\04 Easy Girl.wav
Pre-gap length 0:00:01.74
Peak level 82.2 %
Extraction speed 3.6 X
Track quality 100.0 %
Test CRC A91F7A0E
Copy CRC A91F7A0E
Track not present in AccurateRip database
Copy OK
Track 5
Filename C:\Users\VAIO\Downloads\Digital Blood - A Retrospective (1994)\05 Paleo Technic Age.wav
Pre-gap length 0:00:01.74
Peak level 74.8 %
Extraction speed 3.9 X
Track quality 100.0 %
Test CRC 4049E9B5
Copy CRC 4049E9B5
Track not present in AccurateRip database
Copy OK
Track 6
Filename C:\Users\VAIO\Downloads\Digital Blood - A Retrospective (1994)\06 Stop Withstanding.wav
Pre-gap length 0:00:01.74
Peak level 72.2 %
Extraction speed 4.2 X
Track quality 100.0 %
Test CRC 76ECC6E4
Copy CRC 76ECC6E4
Track not present in AccurateRip database
Copy OK
Track 7
Filename C:\Users\VAIO\Downloads\Digital Blood ‎- A Retrospective (1994)\07 Space Machine.wav
Pre-gap length 0:00:01.74
Peak level 64.7 %
Extraction speed 4.5 X
Track quality 100.0 %
Test CRC 157D790D
Copy CRC 157D790D
Track not present in AccurateRip database
Copy OK
Track 8
Filename C:\Users\VAIO\Downloads\Digital Blood - A Retrospective (1994)\08 Clear Alert.wav
Pre-gap length 0:00:01.74
Peak level 100.0 %
Extraction speed 4.6 X
Track quality 100.0 %
Test CRC B8F03DF0
Copy CRC B8F03DF0
Track not present in AccurateRip database
Copy OK
Track 9
Filename C:\Users\VAIO\Downloads\Digital Blood - A Retrospective (1994)\09 Factory.wav
Pre-gap length 0:00:01.74
Peak level 100.0 %
Extraction speed 4.7 X
Track quality 100.0 %
Test CRC 44E4DFE1
Copy CRC 44E4DFE1
Track not present in AccurateRip database
Copy OK
Track 10
Filename C:\Users\VAIO\Downloads\Digital Blood ‎- A Retrospective (1994)\10 Unknown Lie.wav
Pre-gap length 0:00:01.74
Peak level 100.0 %
Extraction speed 4.8 X
Track quality 100.0 %
Test CRC D7D1A44F
Copy CRC D7D1A44F
Track not present in AccurateRip database
Copy OK
Track 11
Filename C:\Users\VAIO\Downloads\Digital Blood - A Retrospective (1994)\11 Still Alone.wav
Pre-gap length 0:00:01.74
Peak level 90.2 %
Extraction speed 5.0 X
Track quality 100.0 %
Test CRC 1E084100
Copy CRC 1E084100
Track not present in AccurateRip database
Copy OK
Track 12
Filename C:\Users\VAIO\Downloads\Digital Blood - A Retrospective (1994)\12 Plague.wav
Pre-gap length 0:00:01.74
Peak level 65.4 %
Extraction speed 5.1 X
Track quality 99.9 %
Test CRC 318D2AB4
Copy CRC 318D2AB4
Track not present in AccurateRip database
Copy OK
None of the tracks are present in the AccurateRip database
No errors occurred
End of status report
==== Log checksum 337CB9FDAB71334EDB815687E5D1EFC4BDB5DF4B6868096D405D7F3DCA610C68 ====
Код:
[imgright]http://i67.fastpic.ru/big/2014/0911/c7/88266e409ecc2c12755be5035b0c6fc7.jpg[/imgright]01 Perfect Torment 05:38
02 Days Of Yore 06:13
03 System Analyse 03:28
04 Catastrophy (No Voice) 04:28
05 Bad Picture 6:22
06 Marnie 05:32
07 Soul Tension 04:49
08 Fridge 02:57
REM GENRE EBM
REM DATE 1995
REM DISCID 61094308
REM COMMENT "ExactAudioCopy v1.0b3"
PERFORMER "Digital Blood"
TITLE "Start Transmission"
FILE "01 Perfect Torment.wav" WAVE
TRACK 01 AUDIO
TITLE "Perfect Torment"
PERFORMER "Digital Blood"
INDEX 01 00:00:00
TRACK 02 AUDIO
TITLE "Days Of Yore"
PERFORMER "Digital Blood"
INDEX 00 05:36:63
FILE "02 Days Of Yore.wav" WAVE
INDEX 01 00:00:00
TRACK 03 AUDIO
TITLE "System Analyse"
PERFORMER "Digital Blood"
INDEX 00 06:11:67
FILE "03 System Analyse.wav" WAVE
INDEX 01 00:00:00
TRACK 04 AUDIO
TITLE "Catastrophy (No Voice)"
PERFORMER "Digital Blood"
INDEX 00 03:26:42
FILE "04 Catastrophy (No Voice).wav" WAVE
INDEX 01 00:00:00
TRACK 05 AUDIO
TITLE "Bad Picture"
PERFORMER "Digital Blood"
INDEX 00 04:26:02
FILE "05 Bad Picture.wav" WAVE
INDEX 01 00:00:00
TRACK 06 AUDIO
TITLE "Marnie"
PERFORMER "Digital Blood"
INDEX 00 06:20:58
FILE "06 Marnie.wav" WAVE
INDEX 01 00:00:00
TRACK 07 AUDIO
TITLE "Soul Tension"
PERFORMER "Digital Blood"
INDEX 00 05:30:11
FILE "07 Soul Tension.wav" WAVE
INDEX 01 00:00:00
TRACK 08 AUDIO
TITLE "Fridge"
PERFORMER "Digital Blood"
INDEX 00 04:47:38
FILE "08 Fridge.wav" WAVE
INDEX 01 00:00:00
Exact Audio Copy V1.0 beta 3 from 29. August 2011
EAC extraction logfile from 23. April 2014, 17:33
Digital Blood / Start Transmission
Used drive : MATSHITADVD-RAM UJ8A0AS Adapter: 1 ID: 0
Read mode : Secure
Utilize accurate stream : Yes
Defeat audio cache : Yes
Make use of C2 pointers : No
Read offset correction : 102
Overread into Lead-In and Lead-Out : No
Fill up missing offset samples with silence : Yes
Delete leading and trailing silent blocks : No
Null samples used in CRC calculations : Yes
Used interface : Native Win32 interface for Win NT & 2000
Gap handling : Appended to previous track
Used output format : Internal WAV Routines
Sample format : 44.100 Hz; 16 Bit; Stereo
TOC of the extracted CD
Track | Start | Length | Start sector | End sector
---------------------------------------------------------
1 | 0:00.00 | 5:38.62 | 0 | 25411
2 | 5:38.62 | 6:13.66 | 25412 | 53452
3 | 11:52.53 | 3:28.41 | 53453 | 69093
4 | 15:21.19 | 4:28.01 | 69094 | 89194
5 | 19:49.20 | 6:22.57 | 89195 | 117901
6 | 26:12.02 | 5:32.11 | 117902 | 142812
7 | 31:44.13 | 4:49.37 | 142813 | 164524
8 | 36:33.50 | 2:57.54 | 164525 | 177853
Track 1
Filename C:\Users\VAIO\Downloads\Digital Blood - Start Transmission (1995)\01 Perfect Torment.wav
Pre-gap length 0:00:02.00
Peak level 100.0 %
Extraction speed 2.8 X
Track quality 100.0 %
Test CRC 633E1530
Copy CRC 633E1530
Track not present in AccurateRip database
Copy OK
Track 2
Filename C:\Users\VAIO\Downloads\Digital Blood - Start Transmission (1995)\02 Days Of Yore.wav
Pre-gap length 0:00:01.74
Peak level 100.0 %
Extraction speed 3.2 X
Track quality 100.0 %
Test CRC 83FCD884
Copy CRC 83FCD884
Track not present in AccurateRip database
Copy OK
Track 3
Filename C:\Users\VAIO\Downloads\Digital Blood - Start Transmission (1995)\03 System Analyse.wav
Pre-gap length 0:00:01.74
Peak level 100.0 %
Extraction speed 3.4 X
Track quality 100.0 %
Test CRC F86A99A4
Copy CRC F86A99A4
Track not present in AccurateRip database
Copy OK
Track 4
Filename C:\Users\VAIO\Downloads\Digital Blood - Start Transmission (1995)\04 Catastrophy (No Voice).wav
Pre-gap length 0:00:01.74
Peak level 96.6 %
Extraction speed 3.6 X
Track quality 100.0 %
Test CRC 4CBBEFDA
Copy CRC 4CBBEFDA
Track not present in AccurateRip database
Copy OK
Track 5
Filename C:\Users\VAIO\Downloads\Digital Blood - Start Transmission (1995)\05 Bad Picture.wav
Pre-gap length 0:00:01.74
Peak level 100.0 %
Extraction speed 3.9 X
Track quality 99.9 %
Test CRC 43C69F2C
Copy CRC 43C69F2C
Track not present in AccurateRip database
Copy OK
Track 6
Filename C:\Users\VAIO\Downloads\Digital Blood - Start Transmission (1995)\06 Marnie.wav
Pre-gap length 0:00:01.74
Peak level 89.3 %
Extraction speed 4.2 X
Track quality 100.0 %
Test CRC 52368435
Copy CRC 52368435
Track not present in AccurateRip database
Copy OK
Track 7
Filename C:\Users\VAIO\Downloads\Digital Blood - Start Transmission (1995)\07 Soul Tension.wav
Pre-gap length 0:00:02.00
Peak level 90.7 %
Extraction speed 4.3 X
Track quality 99.9 %
Test CRC B44D013B
Copy CRC B44D013B
Track not present in AccurateRip database
Copy OK
Track 8
Filename C:\Users\VAIO\Downloads\Digital Blood - Start Transmission (1995)\08 Fridge.wav
Pre-gap length 0:00:01.74
Peak level 90.1 %
Extraction speed 4.6 X
Track quality 100.0 %
Test CRC F9A55F37
Copy CRC F9A55F37
Track not present in AccurateRip database
Copy OK
None of the tracks are present in the AccurateRip database
No errors occurred
End of status report
==== Log checksum 675BA083095E9A9DCD25FE4D866C888D16B59818C6912D9A924689E2A97E8DF3 ====
Код:
[imgright]http://i68.fastpic.ru/big/2014/0911/ec/1e87bfbe9b61f362c220e4b5da4c67ec.jpg[/imgright]01 Action : Reaction 06:23
02 Hard II 04:38
03 Phobia 03:45
04 Plague 04:10
05 Reaction O.D. 05:31
06 Molecule  06:54
07 Gazodrome 02:11
08 Alive 03:18
09 Recollection 06:50
10 Erase Me 05:14
REM GENRE EBM
REM DATE 1996
REM DISCID 7A0B810A
REM COMMENT "ExactAudioCopy v1.0b3"
PERFORMER "Digital Blood"
TITLE "Electronic Workbench"
FILE "01 Action - Reaction.wav" WAVE
TRACK 01 AUDIO
TITLE "Action : Reaction"
PERFORMER "Digital Blood"
INDEX 01 00:00:00
TRACK 02 AUDIO
TITLE "Hard II"
PERFORMER "Digital Blood"
INDEX 00 06:22:71
FILE "02 Hard II.wav" WAVE
INDEX 01 00:00:00
TRACK 03 AUDIO
TITLE "Phobia"
PERFORMER "Digital Blood"
INDEX 00 04:36:42
FILE "03 Phobia.wav" WAVE
INDEX 01 00:00:00
TRACK 04 AUDIO
TITLE "Plague"
PERFORMER "Digital Blood"
INDEX 00 03:43:60
FILE "04 Plague.wav" WAVE
INDEX 01 00:00:00
TRACK 05 AUDIO
TITLE "Reaction O.D."
PERFORMER "Digital Blood"
INDEX 00 04:08:51
FILE "05 Reaction O.D..wav" WAVE
INDEX 01 00:00:00
TRACK 06 AUDIO
TITLE "Molecule"
PERFORMER "Digital Blood"
INDEX 00 05:30:56
FILE "06 Molecule.wav" WAVE
INDEX 01 00:00:00
TRACK 07 AUDIO
TITLE "Gazodrome"
PERFORMER "Digital Blood"
INDEX 00 06:53:73
FILE "07 Gazodrome.wav" WAVE
INDEX 01 00:00:00
TRACK 08 AUDIO
TITLE "Alive"
PERFORMER "Digital Blood"
INDEX 00 02:08:67
FILE "08 Alive.wav" WAVE
INDEX 01 00:00:00
TRACK 09 AUDIO
TITLE "Recollection"
PERFORMER "Digital Blood"
INDEX 00 03:18:39
FILE "09 Recollection.wav" WAVE
INDEX 01 00:00:00
TRACK 10 AUDIO
TITLE "Erase Me"
PERFORMER "Digital Blood"
INDEX 00 06:49:44
FILE "10 Erase Me.wav" WAVE
INDEX 01 00:00:00
Exact Audio Copy V1.0 beta 3 from 29. August 2011
EAC extraction logfile from 23. April 2014, 17:07
Digital Blood / Electronic Workbench
Used drive : MATSHITADVD-RAM UJ8A0AS Adapter: 1 ID: 0
Read mode : Secure
Utilize accurate stream : Yes
Defeat audio cache : Yes
Make use of C2 pointers : No
Read offset correction : 102
Overread into Lead-In and Lead-Out : No
Fill up missing offset samples with silence : Yes
Delete leading and trailing silent blocks : No
Null samples used in CRC calculations : Yes
Used interface : Native Win32 interface for Win NT & 2000
Gap handling : Appended to previous track
Used output format : Internal WAV Routines
Sample format : 44.100 Hz; 16 Bit; Stereo
TOC of the extracted CD
Track | Start | Length | Start sector | End sector
---------------------------------------------------------
1 | 0:00.00 | 6:24.70 | 0 | 28869
2 | 6:24.70 | 4:38.41 | 28870 | 49760
3 | 11:03.36 | 3:45.59 | 49761 | 66694
4 | 14:49.20 | 4:10.50 | 66695 | 85494
5 | 18:59.70 | 5:32.55 | 85495 | 110449
6 | 24:32.50 | 6:55.72 | 110450 | 141646
7 | 31:28.47 | 2:10.66 | 141647 | 151462
8 | 33:39.38 | 3:20.38 | 151463 | 166500
9 | 37:00.01 | 6:51.44 | 166501 | 197369
10 | 43:51.45 | 5:13.31 | 197370 | 220875
Track 1
Filename C:\Users\VAIO\Downloads\Digital Blood - Electronic Workbench (1996)\01 Action - Reaction.wav
Pre-gap length 0:00:02.00
Peak level 100.0 %
Extraction speed 2.8 X
Track quality 100.0 %
Test CRC E250E4F2
Copy CRC E250E4F2
Track not present in AccurateRip database
Copy OK
Track 2
Filename C:\Users\VAIO\Downloads\Digital Blood - Electronic Workbench (1996)\02 Hard II.wav
Pre-gap length 0:00:01.74
Peak level 100.0 %
Extraction speed 3.1 X
Track quality 99.9 %
Test CRC 81832A8D
Copy CRC 81832A8D
Track not present in AccurateRip database
Copy OK
Track 3
Filename C:\Users\VAIO\Downloads\Digital Blood - Electronic Workbench (1996)\03 Phobia.wav
Pre-gap length 0:00:01.74
Peak level 100.0 %
Extraction speed 3.4 X
Track quality 100.0 %
Test CRC 9BB407B2
Copy CRC 9BB407B2
Track not present in AccurateRip database
Copy OK
Track 4
Filename C:\Users\VAIO\Downloads\Digital Blood - Electronic Workbench (1996)\04 Plague.wav
Pre-gap length 0:00:01.74
Peak level 100.0 %
Extraction speed 3.5 X
Track quality 99.9 %
Test CRC BAD9B617
Copy CRC BAD9B617
Track not present in AccurateRip database
Copy OK
Track 5
Filename C:\Users\VAIO\Downloads\Digital Blood - Electronic Workbench (1996)\05 Reaction O.D..wav
Pre-gap length 0:00:01.74
Peak level 100.0 %
Extraction speed 3.8 X
Track quality 100.0 %
Test CRC 0809657F
Copy CRC 0809657F
Track not present in AccurateRip database
Copy OK
Track 6
Filename C:\Users\VAIO\Downloads\Digital Blood - Electronic Workbench (1996)\06 Molecule.wav
Pre-gap length 0:00:01.74
Peak level 100.0 %
Extraction speed 4.1 X
Track quality 99.9 %
Test CRC C7E259DD
Copy CRC C7E259DD
Track not present in AccurateRip database
Copy OK
Track 7
Filename C:\Users\VAIO\Downloads\Digital Blood - Electronic Workbench (1996)\07 Gazodrome.wav
Pre-gap length 0:00:01.74
Peak level 100.0 %
Extraction speed 4.3 X
Track quality 100.0 %
Test CRC C0209B69
Copy CRC C0209B69
Track not present in AccurateRip database
Copy OK
Track 8
Filename C:\Users\VAIO\Downloads\Digital Blood - Electronic Workbench (1996)\08 Alive.wav
Pre-gap length 0:00:01.74
Peak level 100.0 %
Extraction speed 4.3 X
Track quality 99.9 %
Test CRC E59581F4
Copy CRC E59581F4
Track not present in AccurateRip database
Copy OK
Track 9
Filename C:\Users\VAIO\Downloads\Digital Blood - Electronic Workbench (1996)\09 Recollection.wav
Pre-gap length 0:00:01.74
Peak level 100.0 %
Extraction speed 4.7 X
Track quality 100.0 %
Test CRC F69EE984
Copy CRC F69EE984
Track not present in AccurateRip database
Copy OK
Track 10
Filename C:\Users\VAIO\Downloads\Digital Blood - Electronic Workbench (1996)\10 Erase Me.wav
Pre-gap length 0:00:02.00
Peak level 100.0 %
Extraction speed 4.8 X
Track quality 99.9 %
Test CRC 9B694C5F
Copy CRC 9B694C5F
Track not present in AccurateRip database
Copy OK
None of the tracks are present in the AccurateRip database
No errors occurred
End of status report
==== Log checksum E929DA4D8161ECC133B13EB668203E80027E5317A893288B5AF48A52D36F0648 ====
Код:
[imgright]http://i64.fastpic.ru/big/2014/0911/f8/8537a6415fcce8b15d06ef1f8fa403f8.jpg[/imgright]01 Cages V2.0 06:26
02 K.E 04:52
03 Troubles 05:52
04 Gazo 1917 04:40
REM DATE 1997
REM DISCID 33056D04
REM COMMENT "ExactAudioCopy v1.0b3"
PERFORMER "Digital Blood"
TITLE "First Injection"
FILE "Digital Blood - First Injection.wav" WAVE
TRACK 01 AUDIO
TITLE "Cages V2.0"
PERFORMER "Digital Blood"
INDEX 01 00:00:00
TRACK 02 AUDIO
TITLE "K.E."
PERFORMER "Digital Blood"
INDEX 01 06:24:74
TRACK 03 AUDIO
TITLE "Troubles"
PERFORMER "Digital Blood"
INDEX 01 11:15:59
TRACK 04 AUDIO
TITLE "Gazo 1917"
PERFORMER "Digital Blood"
INDEX 01 17:07:60
Exact Audio Copy V1.0 beta 3 from 29. August 2011
EAC extraction logfile from 1. July 2014, 15:25
Digital Blood / First Injection
Used drive : MATSHITADVD-RAM UJ8A0AS Adapter: 1 ID: 0
Read mode : Secure
Utilize accurate stream : Yes
Defeat audio cache : Yes
Make use of C2 pointers : No
Read offset correction : 102
Overread into Lead-In and Lead-Out : No
Fill up missing offset samples with silence : Yes
Delete leading and trailing silent blocks : No
Null samples used in CRC calculations : Yes
Used interface : Native Win32 interface for Win NT & 2000
Gap handling : Appended to previous track
Used output format : Internal WAV Routines
Sample format : 44.100 Hz; 16 Bit; Stereo
TOC of the extracted CD
Track | Start | Length | Start sector | End sector
---------------------------------------------------------
1 | 0:00.00 | 6:24.74 | 0 | 28873
2 | 6:24.74 | 4:50.60 | 28874 | 50683
3 | 11:15.59 | 5:52.01 | 50684 | 77084
4 | 17:07.60 | 6:02.03 | 77085 | 104237
Track 1
Filename C:\Users\VAIO\Downloads\Digital Blood - First Injection (1997)\01 Cages V2.0.wav
Pre-gap length 0:00:02.00
Peak level 100.0 %
Extraction speed 1.7 X
Track quality 100.0 %
Test CRC 99851F8A
Copy CRC 99851F8A
Track not present in AccurateRip database
Copy OK
Track 2
Filename C:\Users\VAIO\Downloads\Digital Blood - First Injection (1997)\02 K.E..wav
Peak level 100.0 %
Extraction speed 1.6 X
Track quality 99.9 %
Test CRC 66F7AFA5
Copy CRC 66F7AFA5
Track not present in AccurateRip database
Copy OK
Track 3
Filename C:\Users\VAIO\Downloads\Digital Blood - First Injection (1997)\03 Troubles.wav
Peak level 50.9 %
Extraction speed 2.1 X
Track quality 100.0 %
Test CRC 8A901F23
Copy CRC 8A901F23
Track not present in AccurateRip database
Copy OK
Track 4
Filename C:\Users\VAIO\Downloads\Digital Blood - First Injection (1997)\04 Gazo 1917.wav
Peak level 98.2 %
Extraction speed 2.2 X
Track quality 100.0 %
Test CRC 35EBA6E1
Copy CRC 35EBA6E1
Track not present in AccurateRip database
Copy OK
None of the tracks are present in the AccurateRip database
No errors occurred
End of status report
==== Log checksum 81EE779494579A22AFD3A62267C72263221674AD608FFC9A7CD8A438D0C609CC ====
Код:
[imgright]http://i66.fastpic.ru/big/2014/0911/47/407762ecda1da3b35c74e81c86b65e47.jpg[/imgright]01 New Anger 07:14
02 Personality Disorder 03:59
03 Troubles 05:54
04 Gazo III 01:00
05 Artefact 04:52
06 Rape 06:25
07 Gazo 0:23
08 Intubation 04:09
09 No Feedback (B-Adrenalin Mixx) 05:05
10 Gazo (Live In Grenobie) 01:54
11 Last Spirits 07:22
12 No Feedback 05:13
13 Gazo IV 01:59
14 Automation (Disrupted Mix) 04:41
15 Photophobia 07:16
REM GENRE Electronic
REM DATE 1999
REM DISCID D50F2A0F
REM COMMENT "ExactAudioCopy v1.0b3"
PERFORMER "Digital Blood"
TITLE "Spread The Virus"
FILE "Digital Blood - Spread The Virus.wav" WAVE
TRACK 01 AUDIO
TITLE "New Anger"
PERFORMER "Digital Blood"
INDEX 01 00:00:00
TRACK 02 AUDIO
TITLE "Personality Disorder"
PERFORMER "Digital Blood"
INDEX 00 07:12:12
INDEX 01 07:14:12
TRACK 03 AUDIO
TITLE "Troubles"
PERFORMER "Digital Blood"
INDEX 00 11:11:38
INDEX 01 11:13:37
TRACK 04 AUDIO
TITLE "Gazo III"
PERFORMER "Digital Blood"
INDEX 00 17:05:37
INDEX 01 17:07:38
TRACK 05 AUDIO
TITLE "Artefact"
PERFORMER "Digital Blood"
INDEX 00 18:05:63
INDEX 01 18:07:63
TRACK 06 AUDIO
TITLE "Rape"
PERFORMER "Digital Blood"
INDEX 00 22:58:15
INDEX 01 23:00:14
TRACK 07 AUDIO
TITLE "Gazo"
PERFORMER "Digital Blood"
INDEX 00 29:23:59
INDEX 01 29:25:59
TRACK 08 AUDIO
TITLE "Intubation"
PERFORMER "Digital Blood"
INDEX 00 29:46:58
INDEX 01 29:48:59
TRACK 09 AUDIO
TITLE "No Feedback (B-Adrenalin Mixx)"
PERFORMER "Digital Blood"
INDEX 00 33:56:37
INDEX 01 33:58:38
TRACK 10 AUDIO
TITLE "Gazo (Live In Grenobie)"
PERFORMER "Digital Blood"
INDEX 00 39:01:39
INDEX 01 39:03:39
TRACK 11 AUDIO
TITLE "Last Spirits"
PERFORMER "Digital Blood"
INDEX 00 40:56:13
INDEX 01 40:58:14
TRACK 12 AUDIO
TITLE "No Feedback"
PERFORMER "Digital Blood"
INDEX 00 48:18:64
INDEX 01 48:20:64
TRACK 13 AUDIO
TITLE "Gazo IV"
PERFORMER "Digital Blood"
INDEX 00 53:32:44
INDEX 01 53:34:43
TRACK 14 AUDIO
TITLE "Automation (Disrupted Mix)"
PERFORMER "Digital Blood"
INDEX 00 58:14:08
INDEX 01 58:16:07
TRACK 15 AUDIO
TITLE "Photophobia"
PERFORMER "Digital Blood"
INDEX 00 60:13:17
INDEX 01 60:15:17
Exact Audio Copy V1.0 beta 3 from 29. August 2011
EAC extraction logfile from 28. May 2014, 16:23
Digital Blood / Spread The Virus
Used drive : MATSHITADVD-RAM UJ8A0AS Adapter: 1 ID: 0
Read mode : Secure
Utilize accurate stream : Yes
Defeat audio cache : Yes
Make use of C2 pointers : No
Read offset correction : 102
Overread into Lead-In and Lead-Out : No
Fill up missing offset samples with silence : Yes
Delete leading and trailing silent blocks : No
Null samples used in CRC calculations : Yes
Used interface : Native Win32 interface for Win NT & 2000
Gap handling : Appended to previous track
Used output format : Internal WAV Routines
Sample format : 44.100 Hz; 16 Bit; Stereo
TOC of the extracted CD
Track | Start | Length | Start sector | End sector
---------------------------------------------------------
1 | 0:00.00 | 7:14.12 | 0 | 32561
2 | 7:14.12 | 3:59.25 | 32562 | 50511
3 | 11:13.37 | 5:54.01 | 50512 | 77062
4 | 17:07.38 | 1:00.25 | 77063 | 81587
5 | 18:07.63 | 4:52.26 | 81588 | 103513
6 | 23:00.14 | 6:25.45 | 103514 | 132433
7 | 29:25.59 | 0:23.00 | 132434 | 134158
8 | 29:48.59 | 4:09.54 | 134159 | 152887
9 | 33:58.38 | 5:05.01 | 152888 | 175763
10 | 39:03.39 | 1:54.50 | 175764 | 184363
11 | 40:58.14 | 7:22.50 | 184364 | 217563
12 | 48:20.64 | 5:13.54 | 217564 | 241092
13 | 53:34.43 | 4:41.39 | 241093 | 262206
14 | 58:16.07 | 1:59.10 | 262207 | 271141
15 | 60:15.17 | 4:27.44 | 271142 | 291210
Track 1
Filename C:\Users\VAIO\Downloads\Digital Blood - Spread The Virus (1999)\01 New Anger.wav
Pre-gap length 0:00:02.00
Peak level 99.9 %
Extraction speed 1.7 X
Track quality 100.0 %
Test CRC 094C83A2
Copy CRC 094C83A2
Track not present in AccurateRip database
Copy OK
Track 2
Filename C:\Users\VAIO\Downloads\Digital Blood - Spread The Virus (1999)\02 Personality Disorder.wav
Pre-gap length 0:00:02.00
Suspicious position 0:03:57
Peak level 72.3 %
Extraction speed 1.2 X
Track quality 99.8 %
Test CRC 679647F6
Copy CRC 679647F6
Track not present in AccurateRip database
Copy OK
Track 3
Filename C:\Users\VAIO\Downloads\Digital Blood - Spread The Virus (1999)\03 Troubles.wav
Pre-gap length 0:00:01.74
Peak level 100.0 %
Extraction speed 1.8 X
Track quality 99.9 %
Test CRC D780E4BA
Copy CRC D780E4BA
Track not present in AccurateRip database
Copy OK
Track 4
Filename C:\Users\VAIO\Downloads\Digital Blood - Spread The Virus (1999)\04 Gazo III.wav
Pre-gap length 0:00:02.01
Peak level 100.0 %
Extraction speed 1.4 X
Track quality 100.0 %
Test CRC D1F72466
Copy CRC D1F72466
Track not present in AccurateRip database
Copy OK
Track 5
Filename C:\Users\VAIO\Downloads\Digital Blood - Spread The Virus (1999)\05 Artefact.wav
Pre-gap length 0:00:02.00
Peak level 100.0 %
Extraction speed 2.2 X
Track quality 100.0 %
Test CRC B06C2017
Copy CRC B06C2017
Track not present in AccurateRip database
Copy OK
Track 6
Filename C:\Users\VAIO\Downloads\Digital Blood - Spread The Virus (1999)\06 Rape.wav
Pre-gap length 0:00:01.74
Peak level 100.0 %
Extraction speed 2.4 X
Track quality 100.0 %
Test CRC 20C84C79
Copy CRC 20C84C79
Track not present in AccurateRip database
Copy OK
Track 7
Filename C:\Users\VAIO\Downloads\Digital Blood - Spread The Virus (1999)\07 Gazo.wav
Pre-gap length 0:00:02.00
Peak level 88.8 %
Extraction speed 1.0 X
Track quality 100.0 %
Test CRC 5918995B
Copy CRC 5918995B
Track not present in AccurateRip database
Copy OK
Track 8
Filename C:\Users\VAIO\Downloads\Digital Blood - Spread The Virus (1999)\08 Intubation.wav
Pre-gap length 0:00:02.01
Peak level 100.0 %
Extraction speed 2.5 X
Track quality 100.0 %
Test CRC ED8F8A00
Copy CRC ED8F8A00
Track not present in AccurateRip database
Copy OK
Track 9
Filename C:\Users\VAIO\Downloads\Digital Blood - Spread The Virus (1999)\09 No Feedback (B-Adrenalin Mixx).wav
Pre-gap length 0:00:02.01
Peak level 100.0 %
Extraction speed 2.3 X
Track quality 99.9 %
Test CRC 81B5ED34
Copy CRC 81B5ED34
Track not present in AccurateRip database
Copy OK
Track 10
Filename C:\Users\VAIO\Downloads\Digital Blood - Spread The Virus (1999)\10 Gazo (Live In Grenobie).wav
Pre-gap length 0:00:02.00
Peak level 100.0 %
Extraction speed 2.2 X
Track quality 100.0 %
Test CRC 32C093B9
Copy CRC 32C093B9
Track not present in AccurateRip database
Copy OK
Track 11
Filename C:\Users\VAIO\Downloads\Digital Blood - Spread The Virus (1999)\11 Last Spirits.wav
Pre-gap length 0:00:02.01
Peak level 100.0 %
Extraction speed 2.9 X
Track quality 100.0 %
Test CRC 584A2F82
Copy CRC 584A2F82
Track not present in AccurateRip database
Copy OK
Track 12
Filename C:\Users\VAIO\Downloads\Digital Blood - Spread The Virus (1999)\12 No Feedback.wav
Pre-gap length 0:00:02.00
Suspicious position 0:05:11
Peak level 98.0 %
Extraction speed 2.2 X
Track quality 99.8 %
Test CRC 76CF6CC6
Copy CRC 76CF6CC6
Track not present in AccurateRip database
Copy OK
Track 13
Filename C:\Users\VAIO\Downloads\Digital Blood - Spread The Virus (1999)\13 Gazo IV.wav
Pre-gap length 0:00:01.74
Suspicious position 0:04:39
Peak level 100.0 %
Extraction speed 1.9 X
Track quality 99.8 %
Test CRC A0AE8F05
Copy CRC A0AE8F05
Track not present in AccurateRip database
Copy OK
Track 14
Filename C:\Users\VAIO\Downloads\Digital Blood - Spread The Virus (1999)\14 Automation (Disrupted Mix).wav
Pre-gap length 0:00:01.74
Peak level 100.0 %
Extraction speed 2.0 X
Track quality 99.9 %
Test CRC F15AA8CB
Copy CRC F15AA8CB
Track not present in AccurateRip database
Copy OK
Track 15
Filename C:\Users\VAIO\Downloads\Digital Blood - Spread The Virus (1999)\15 Photophobia.wav
Pre-gap length 0:00:02.00
Suspicious position 0:04:27
Peak level 97.3 %
Extraction speed 2.3 X
Track quality 99.8 %
Test CRC 81BAC99A
Copy CRC 81BAC99A
Track not present in AccurateRip database
Copy OK
None of the tracks are present in the AccurateRip database
No errors occurred
End of status report
==== Log checksum 64F388FB315F6E87E10D3AEE0FDDD025F609175C0C3B4327FD42D7B101508245 ====
Код:
[imgright]http://i65.fastpic.ru/big/2014/0911/ac/f50525f9034123dee989f017546befac.jpg[/imgright]
Код:
AUDIOCHECKER v2.0 beta (build 457) - by Dester - opdester@freemail.hu
~~~~~~~~~~~~~~~~~~~~~~~~~~~~~~~~~~
Started at: понедельник, 08. 09. 2014. - 23:11.15
49 files found
01 -===- C:\Users\VAIO\Downloads\Digital Blood - Discography\Digital Blood - A Retrospective (1994)\01 Endless Time.flac
  Extracted successfully
  Conclusion: this track is CDDA with probability 100%
  Tempfile successfully deleted.
02 -===- C:\Users\VAIO\Downloads\Digital Blood - Discography\Digital Blood - A Retrospective (1994)\02 Near The Frontier.flac
  Extracted successfully
  Conclusion: this track is CDDA with probability 100%
  Tempfile successfully deleted.
03 -===- C:\Users\VAIO\Downloads\Digital Blood - Discography\Digital Blood - A Retrospective (1994)\03 Carthage Propagande.flac
  Extracted successfully
  Conclusion: this track is CDDA with probability 100%
  Tempfile successfully deleted.
04 -===- C:\Users\VAIO\Downloads\Digital Blood - Discography\Digital Blood - A Retrospective (1994)\04 Easy Girl.flac
  Extracted successfully
  Conclusion: this track is CDDA with probability 100%
  Tempfile successfully deleted.
05 -===- C:\Users\VAIO\Downloads\Digital Blood - Discography\Digital Blood - A Retrospective (1994)\05 Paleo Technic Age.flac
  Extracted successfully
  Conclusion: this track is CDDA with probability 100%
  Tempfile successfully deleted.
06 -===- C:\Users\VAIO\Downloads\Digital Blood - Discography\Digital Blood - A Retrospective (1994)\06 Stop Withstanding.flac
  Extracted successfully
  Conclusion: this track is CDDA with probability 99%
  Tempfile successfully deleted.
07 -===- C:\Users\VAIO\Downloads\Digital Blood - Discography\Digital Blood - A Retrospective (1994)\07 Space Machine.flac
  Extracted successfully
  Conclusion: this track is CDDA with probability 100%
  Tempfile successfully deleted.
08 -===- C:\Users\VAIO\Downloads\Digital Blood - Discography\Digital Blood - A Retrospective (1994)\08 Clear Alert.flac
  Extracted successfully
  Conclusion: this track is CDDA with probability 100%
  Tempfile successfully deleted.
09 -===- C:\Users\VAIO\Downloads\Digital Blood - Discography\Digital Blood - A Retrospective (1994)\09 Factory.flac
  Extracted successfully
  Conclusion: this track is CDDA with probability 100%
  Tempfile successfully deleted.
10 -===- C:\Users\VAIO\Downloads\Digital Blood - Discography\Digital Blood - A Retrospective (1994)\10 Unknown Lie.flac
  Extracted successfully
  Conclusion: this track is CDDA with probability 100%
  Tempfile successfully deleted.
11 -===- C:\Users\VAIO\Downloads\Digital Blood - Discography\Digital Blood - A Retrospective (1994)\11 Still Alone.flac
  Extracted successfully
  Conclusion: this track is CDDA with probability 100%
  Tempfile successfully deleted.
12 -===- C:\Users\VAIO\Downloads\Digital Blood - Discography\Digital Blood - A Retrospective (1994)\12 Plague.flac
  Extracted successfully
  Conclusion: this track is CDDA with probability 100%
  Tempfile successfully deleted.
13 -===- C:\Users\VAIO\Downloads\Digital Blood - Discography\Digital Blood - Electronic Workbench (1996)\01 Action - Reaction.flac
  Extracted successfully
  Conclusion: this track is CDDA with probability 100%
  Tempfile successfully deleted.
14 -===- C:\Users\VAIO\Downloads\Digital Blood - Discography\Digital Blood - Electronic Workbench (1996)\02 Hard II.flac
  Extracted successfully
  Conclusion: this track is CDDA with probability 100%
  Tempfile successfully deleted.
15 -===- C:\Users\VAIO\Downloads\Digital Blood - Discography\Digital Blood - Electronic Workbench (1996)\03 Phobia.flac
  Extracted successfully
  Conclusion: this track is CDDA with probability 100%
  Tempfile successfully deleted.
16 -===- C:\Users\VAIO\Downloads\Digital Blood - Discography\Digital Blood - Electronic Workbench (1996)\04 Plague.flac
  Extracted successfully
  Conclusion: this track is CDDA with probability 100%
  Tempfile successfully deleted.
17 -===- C:\Users\VAIO\Downloads\Digital Blood - Discography\Digital Blood - Electronic Workbench (1996)\05 Reaction O.D..flac
  Extracted successfully
  Conclusion: this track is CDDA with probability 100%
  Tempfile successfully deleted.
18 -===- C:\Users\VAIO\Downloads\Digital Blood - Discography\Digital Blood - Electronic Workbench (1996)\06 Molecule.flac
  Extracted successfully
  Conclusion: this track is CDDA with probability 100%
  Tempfile successfully deleted.
19 -===- C:\Users\VAIO\Downloads\Digital Blood - Discography\Digital Blood - Electronic Workbench (1996)\07 Gazodrome.flac
  Extracted successfully
  Conclusion: this track is CDDA with probability 99%
  Tempfile successfully deleted.
20 -===- C:\Users\VAIO\Downloads\Digital Blood - Discography\Digital Blood - Electronic Workbench (1996)\08 Alive.flac
  Extracted successfully
  Conclusion: this track is CDDA with probability 100%
  Tempfile successfully deleted.
21 -===- C:\Users\VAIO\Downloads\Digital Blood - Discography\Digital Blood - Electronic Workbench (1996)\09 Recollection.flac
  Extracted successfully
  Conclusion: this track is CDDA with probability 100%
  Tempfile successfully deleted.
22 -===- C:\Users\VAIO\Downloads\Digital Blood - Discography\Digital Blood - Electronic Workbench (1996)\10 Erase Me.flac
  Extracted successfully
  Conclusion: this track is CDDA with probability 100%
  Tempfile successfully deleted.
23 -===- C:\Users\VAIO\Downloads\Digital Blood - Discography\Digital Blood - First Injection (1997)\01 Cages V2.0.flac
  Extracted successfully
  Conclusion: this track is CDDA with probability 100%
  Tempfile successfully deleted.
24 -===- C:\Users\VAIO\Downloads\Digital Blood - Discography\Digital Blood - First Injection (1997)\02 K.E..flac
  Extracted successfully
  Conclusion: this track is CDDA with probability 100%
  Tempfile successfully deleted.
25 -===- C:\Users\VAIO\Downloads\Digital Blood - Discography\Digital Blood - First Injection (1997)\03 Troubles.flac
  Extracted successfully
  Conclusion: this track is CDDA with probability 100%
  Tempfile successfully deleted.
26 -===- C:\Users\VAIO\Downloads\Digital Blood - Discography\Digital Blood - First Injection (1997)\04 Gazo 1917.flac
  Extracted successfully
  Conclusion: this track is CDDA with probability 100%
  Tempfile successfully deleted.
27 -===- C:\Users\VAIO\Downloads\Digital Blood - Discography\Digital Blood - Spread The Virus (1999)\01 New Anger.flac
  Extracted successfully
  Conclusion: this track is CDDA with probability 100%
  Tempfile successfully deleted.
28 -===- C:\Users\VAIO\Downloads\Digital Blood - Discography\Digital Blood - Spread The Virus (1999)\02 Personality Disorder.flac
  Extracted successfully
  Conclusion: this track is CDDA with probability 100%
  Tempfile successfully deleted.
29 -===- C:\Users\VAIO\Downloads\Digital Blood - Discography\Digital Blood - Spread The Virus (1999)\03 Troubles.flac
  Extracted successfully
  Conclusion: this track is CDDA with probability 100%
  Tempfile successfully deleted.
30 -===- C:\Users\VAIO\Downloads\Digital Blood - Discography\Digital Blood - Spread The Virus (1999)\04 Gazo III.flac
  Extracted successfully
  Conclusion: this track is CDDA with probability 100%
  Tempfile successfully deleted.
31 -===- C:\Users\VAIO\Downloads\Digital Blood - Discography\Digital Blood - Spread The Virus (1999)\05 Artefact.flac
  Extracted successfully
  Conclusion: this track is CDDA with probability 99%
  Tempfile successfully deleted.
32 -===- C:\Users\VAIO\Downloads\Digital Blood - Discography\Digital Blood - Spread The Virus (1999)\06 Rape.flac
  Extracted successfully
  Conclusion: this track is CDDA with probability 100%
  Tempfile successfully deleted.
33 -===- C:\Users\VAIO\Downloads\Digital Blood - Discography\Digital Blood - Spread The Virus (1999)\07 Gazo.flac
  Extracted successfully
  Conclusion: this track is CDDA with probability 100%
  Tempfile successfully deleted.
34 -===- C:\Users\VAIO\Downloads\Digital Blood - Discography\Digital Blood - Spread The Virus (1999)\08 Intubation.flac
  Extracted successfully
  Conclusion: this track is CDDA with probability 100%
  Tempfile successfully deleted.
35 -===- C:\Users\VAIO\Downloads\Digital Blood - Discography\Digital Blood - Spread The Virus (1999)\09 No Feedback (B-Adrenalin Mixx).flac
  Extracted successfully
  Conclusion: this track is MPEG with probability 95%
  Tempfile successfully deleted.
36 -===- C:\Users\VAIO\Downloads\Digital Blood - Discography\Digital Blood - Spread The Virus (1999)\10 Gazo (Live In Grenobie).flac
  Extracted successfully
  Conclusion: this track is CDDA with probability 100%
  Tempfile successfully deleted.
37 -===- C:\Users\VAIO\Downloads\Digital Blood - Discography\Digital Blood - Spread The Virus (1999)\11 Last Spirits.flac
  Extracted successfully
  Conclusion: this track is CDDA with probability 100%
  Tempfile successfully deleted.
38 -===- C:\Users\VAIO\Downloads\Digital Blood - Discography\Digital Blood - Spread The Virus (1999)\12 No Feedback.flac
  Extracted successfully
  Conclusion: this track is CDDA with probability 100%
  Tempfile successfully deleted.
39 -===- C:\Users\VAIO\Downloads\Digital Blood - Discography\Digital Blood - Spread The Virus (1999)\13 Gazo IV.flac
  Extracted successfully
  Conclusion: this track is CDDA with probability 100%
  Tempfile successfully deleted.
40 -===- C:\Users\VAIO\Downloads\Digital Blood - Discography\Digital Blood - Spread The Virus (1999)\14 Automation (Disrupted Mix).flac
  Extracted successfully
  Conclusion: this track is CDDA with probability 100%
  Tempfile successfully deleted.
41 -===- C:\Users\VAIO\Downloads\Digital Blood - Discography\Digital Blood - Spread The Virus (1999)\15 Photophobia.flac
  Extracted successfully
  Conclusion: this track is CDDA with probability 100%
  Tempfile successfully deleted.
42 -===- C:\Users\VAIO\Downloads\Digital Blood - Discography\Digital Blood - Start Transmission (1995)\01 Perfect Torment.flac
  Extracted successfully
  Conclusion: this track is CDDA with probability 100%
  Tempfile successfully deleted.
43 -===- C:\Users\VAIO\Downloads\Digital Blood - Discography\Digital Blood - Start Transmission (1995)\02 Days Of Yore.flac
  Extracted successfully
  Conclusion: this track is CDDA with probability 100%
  Tempfile successfully deleted.
44 -===- C:\Users\VAIO\Downloads\Digital Blood - Discography\Digital Blood - Start Transmission (1995)\03 System Analyse.flac
  Extracted successfully
  Conclusion: this track is CDDA with probability 100%
  Tempfile successfully deleted.
45 -===- C:\Users\VAIO\Downloads\Digital Blood - Discography\Digital Blood - Start Transmission (1995)\04 Catastrophy (No Voice).flac
  Extracted successfully
  Conclusion: this track is CDDA with probability 100%
  Tempfile successfully deleted.
46 -===- C:\Users\VAIO\Downloads\Digital Blood - Discography\Digital Blood - Start Transmission (1995)\05 Bad Picture.flac
  Extracted successfully
  Conclusion: this track is CDDA with probability 100%
  Tempfile successfully deleted.
47 -===- C:\Users\VAIO\Downloads\Digital Blood - Discography\Digital Blood - Start Transmission (1995)\06 Marnie.flac
  Extracted successfully
  Conclusion: this track is CDDA with probability 100%
  Tempfile successfully deleted.
48 -===- C:\Users\VAIO\Downloads\Digital Blood - Discography\Digital Blood - Start Transmission (1995)\07 Soul Tension.flac
  Extracted successfully
  Conclusion: this track is CDDA with probability 100%
  Tempfile successfully deleted.
49 -===- C:\Users\VAIO\Downloads\Digital Blood - Discography\Digital Blood - Start Transmission (1995)\08 Fridge.flac
  Extracted successfully
  Conclusion: this track is CDDA with probability 100%
  Tempfile successfully deleted.
Finished at: понедельник, 08. 09. 2014. - 23:36.18 (operation time: 0:25.03)
Правила, инструкции, FAQ!!!
Торрент  Добавлен [26 июн 2020, 17:09] Скачать торрент Магнет ссылка
Скачать торрент
[ Размер 21.87 КБ / Просмотров 4 ]

Статус
Проверен 
 
Размер  1.59 ГБ
Приватный: Нет (DHT включён)
.torrent скачан  0
 


     Отправить личное сообщение
   
Страница 1 из 1
Показать сообщения за:  Поле сортировки  
Начать новую тему Ответить на тему


Сейчас этот форум просматривают: нет зарегистрированных пользователей и гости: 0


Вы не можете начинать темы
Вы не можете отвечать на сообщения
Вы не можете редактировать свои сообщения
Вы не можете удалять свои сообщения
Вы не можете добавлять вложения

Перейти:  
cron