Начать новую тему Ответить на тему
Статистика раздачи
Размер: 473.69 МБ | Добавлен: 26 июн 2020, 17:23 | Скачали: 0
Сидеров: 0  [0 байт/сек]    Личеров: 0  [0 байт/сек]
Пред. тема | След. тема 

Автор
Сообщение

СообщениеДобавлено: 26 июн 2020, 17:23 

Ответить с цитатой 

Electro Synthetic Rebellion - Distorted Visions
Жанр: EBM / Electro
Год выпуска диска: 2001
Производитель диска: Germany
Аудио кодек: FLAC
Тип рипа: image+.cue
Битрейт аудио: lossless
Продолжительность: 01:10:45
Трэклист:
1. On The Run (4:43)
2. Under Control (5:27)
3. Resist (5:05)
4. Cryogenics (5:52)
5. Re-Animate (5:39)
6. Bio-Machine (6:09)
7. Radiations (5:23)
8. Death Machine (V2000) (5:25)
9. Escape (5:49)
10. The Beast (5:53)
11. Far Away (9:48)
12. Re-Animate (From The Inside Remix) (5:39)
Exact Audio Copy V0.99 prebeta 5 from 4. May 2009
Отчёт EAC об извлечении, выполненном 4. марта 2010, 22:31
Electro Synthetic Rebellion / Distorted Visions
Дисковод: Optiarc DVD RW AD-7220S Adapter: 3 ID: 0
Режим чтения : Достоверность
Использование точного потока : Да
Отключение кэша аудио : Да
Использование указателей C2 : Нет
Коррекция смещения при чтении : 6
Способность читать области Lead-in и Lead-out : Нет
Заполнение пропущенных сэмплов тишиной : Да
Удаление блоков с тишиной в начале и конце : Нет
При вычислениях CRC использовались нулевые сэмплы : Да
Интерфейс : Встроенный Win32-интерфейс для Win NT/2000
Выходной формат : Внутренние WAV-операции
Формат сэмплов : 44.100 Гц; 16 бит; стерео
TOC извлечённого CD
Трек | Старт | Длительность | Начальный сектор | Конечный сектор
---------------------------------------------------------------------
1 | 0:00.00 | 4:43.53 | 0 | 21277
2 | 4:43.53 | 5:26.66 | 21278 | 45793
3 | 10:10.44 | 5:04.31 | 45794 | 68624
4 | 15:15.00 | 5:52.14 | 68625 | 95038
5 | 21:07.14 | 5:39.10 | 95039 | 120473
6 | 26:46.24 | 6:08.67 | 120474 | 148140
7 | 32:55.16 | 5:23.14 | 148141 | 172379
8 | 38:18.30 | 5:24.70 | 172380 | 196749
9 | 43:43.25 | 5:49.05 | 196750 | 222929
10 | 49:32.30 | 5:52.54 | 222930 | 249383
11 | 55:25.09 | 9:48.09 | 249384 | 293492
12 | 65:13.18 | 5:38.60 | 293493 | 318902
Характеристики диапазона извлечения и сообщения об ошибках
Выбранный диапазон
Имя файла D:\MUSIC\Electro Synthetic Rebellion - 2001 - Distorted Visions\Electro Synthetic Rebellion - Distorted Visions.wav
Пиковый уровень 96.6 %
Качество диапазона 100.0 %
CRC теста 19B18085
CRC копии 19B18085
Копирование... OK
Ошибок не произошло
Конец отчёта
AUDIOCHECKER v2.0 beta (build 457) - by Dester - opdester@freemail.hu
~~~~~~~~~~~~~~~~~~~~~~~~~~~~~~~~~~
-=== НЕ РЕДАКТИРУЙТЕ ЭТОТ ФАЙЛ! ===-
Путь: ...\Electro Synthetic Rebellion - 2001 - Distorted Visions
1 -=- Electro Synthetic Rebellion - Distorted Visions.wav -=- CDDA (100%)
184528052
Доп. информация: Получено по обмену.
Правила, инструкции, FAQ!!!
Торрент  Добавлен [26 июн 2020, 17:23] Скачать торрент Магнет ссылка
Скачать торрент
[ Размер 19.44 КБ / Просмотров 12 ]

Статус
Проверен 
 
Размер  473.69 МБ
Приватный: Нет (DHT включён)
.torrent скачан  0
 


     Отправить личное сообщение
   
Страница 1 из 1
Показать сообщения за:  Поле сортировки  
Начать новую тему Ответить на тему


Сейчас этот форум просматривают: нет зарегистрированных пользователей и гости: 0


Вы не можете начинать темы
Вы не можете отвечать на сообщения
Вы не можете редактировать свои сообщения
Вы не можете удалять свои сообщения
Вы не можете добавлять вложения

Перейти:  
cron