Начать новую тему Ответить на тему
Статистика раздачи
Размер: 537 МБ | Добавлен: 26 июн 2020, 20:21 | Скачали: 0
Сидеров: 0  [0 байт/сек]    Личеров: 0  [0 байт/сек]
Пред. тема | След. тема 

Автор
Сообщение

СообщениеДобавлено: 26 июн 2020, 20:21 

Ответить с цитатой 

DYM / The Swarm
Жанр: EBM, Electro
Страна-производитель диска: Germany
Год издания диска: 2011
Издатель (лейбл): Noitekk
Номер по каталогу: NTK 040
Страна: Canada
Аудиокодек: FLAC (*.flac)
Тип рипа: tracks+.cue
Битрейт аудио: lossless
Продолжительность: 70:19
Источник (релизер): CD-R
Наличие сканов в содержимом раздачи: нет
Треклист:
1 Abbra Cadaver 3:40
2 For Katherine 5:04
3 Right To Fail 4:41
4 W.M.D. 3:58
5 Lude 5:17
6 Swarm (Minimal Mix) 4:35
7 Bender (Sincere Trade Remix) 4:09
8 EBGM (PreEmptive Strike 0.1 Remix) 5:23
9 NeuWorldBrave (Not Found Remix) 4:08
10 Autonomy Of The Will (Die Sektor Remix) 4:07
11 Life Sized (CompUterus Remix) 3:45
12 Touch (C-Lekktor Remix) 5:05
13 Martha Monoxide (DYM Remix) 4:21
14 Government Stomp! (Encephalon Remix) 3:10
15 The Invilid (Amduscia Remix) 4:27
16 Sin Phony (Fractured Remix) 4:22
Код:
Exact Audio Copy V0.99 prebeta 5 from 4. May 2009
EAC extraction logfile from 14. August 2011, 13:31
DYM / The Swarm
Used drive  : PIONEER BD-RW   BDR-206M   Adapter: 0  ID: 3
Read mode               : Secure
Utilize accurate stream : Yes
Defeat audio cache      : Yes
Make use of C2 pointers : No
Read offset correction                      : 667
Overread into Lead-In and Lead-Out          : No
Fill up missing offset samples with silence : Yes
Delete leading and trailing silent blocks   : No
Null samples used in CRC calculations       : Yes
Used interface                              : Native Win32 interface for Win NT & 2000
Gap handling                                : Appended to previous track
Used output format              : User Defined Encoder
Selected bitrate                : 1024 kBit/s
Quality                         : High
Add ID3 tag                     : No
Command line compressor         : C:\Program Files (x86)\Exact Audio Copy\Flac\flac.exe
Additional command line options : -8 -V -T "ARTIST=%a" -T "TITLE=%t" -T "ALBUM=%g" -T "DATE=%y" -T "TRACKNUMBER=%n" -T "GENRE=%m" -T "COMMENT=EAC FLAC -8" %s
TOC of the extracted CD
     Track |   Start  |  Length  | Start sector | End sector
    ---------------------------------------------------------
        1  |  0:00.00 |  3:40.13 |         0    |    16512
        2  |  3:40.13 |  5:04.58 |     16513    |    39370
        3  |  8:44.71 |  4:41.11 |     39371    |    60456
        4  | 13:26.07 |  3:58.23 |     60457    |    78329
        5  | 17:24.30 |  5:17.11 |     78330    |   102115
        6  | 22:41.41 |  4:35.72 |    102116    |   122812
        7  | 27:17.38 |  4:09.27 |    122813    |   141514
        8  | 31:26.65 |  5:23.34 |    141515    |   165773
        9  | 36:50.24 |  4:08.09 |    165774    |   184382
       10  | 40:58.33 |  4:07.10 |    184383    |   202917
       11  | 45:05.43 |  3:45.35 |    202918    |   219827
       12  | 48:51.03 |  5:05.10 |    219828    |   242712
       13  | 53:56.13 |  4:21.59 |    242713    |   262346
       14  | 58:17.72 |  3:10.43 |    262347    |   276639
       15  | 61:28.40 |  4:27.53 |    276640    |   296717
       16  | 65:56.18 |  4:22.39 |    296718    |   316406
Track  1
     Filename E:\DYM - The Swarm\tracks\01. DYM - Abbra Cadaver.wav
     Pre-gap length  0:00:02.00
     Peak level 100.0 %
     Track quality 99.9 %
     Test CRC 1F8149EF
     Copy CRC 1F8149EF
     Track not present in AccurateRip database
     Copy OK
Track  2
     Filename E:\DYM - The Swarm\tracks\02. DYM - For Katherine.wav
     Peak level 100.0 %
     Track quality 100.0 %
     Test CRC 3372CB36
     Copy CRC 3372CB36
     Track not present in AccurateRip database
     Copy OK
Track  3
     Filename E:\DYM - The Swarm\tracks\03. DYM - Right To Fail.wav
     Peak level 97.9 %
     Track quality 100.0 %
     Test CRC 373B070A
     Copy CRC 373B070A
     Track not present in AccurateRip database
     Copy OK
Track  4
     Filename E:\DYM - The Swarm\tracks\04. DYM - W.M.D..wav
     Peak level 100.0 %
     Track quality 100.0 %
     Test CRC 3A01428A
     Copy CRC 3A01428A
     Track not present in AccurateRip database
     Copy OK
Track  5
     Filename E:\DYM - The Swarm\tracks\05. DYM - Lude.wav
     Peak level 100.0 %
     Track quality 100.0 %
     Test CRC AF48705F
     Copy CRC AF48705F
     Track not present in AccurateRip database
     Copy OK
Track  6
     Filename E:\DYM - The Swarm\tracks\06. DYM - Swarm (Minimal Mix).wav
     Peak level 98.9 %
     Track quality 99.9 %
     Test CRC FED2A9A5
     Copy CRC FED2A9A5
     Track not present in AccurateRip database
     Copy OK
Track  7
     Filename E:\DYM - The Swarm\tracks\07. DYM - Bender (Sincere Trade Remix).wav
     Peak level 70.5 %
     Track quality 99.9 %
     Test CRC A5330023
     Copy CRC A5330023
     Track not present in AccurateRip database
     Copy OK
Track  8
     Filename E:\DYM - The Swarm\tracks\08. DYM - EBGM (PreEmptive Strike 0.1 Remix).wav
     Peak level 98.7 %
     Track quality 100.0 %
     Test CRC 7913C344
     Copy CRC 7913C344
     Track not present in AccurateRip database
     Copy OK
Track  9
     Filename E:\DYM - The Swarm\tracks\09. DYM - NeuWorldBrave (Not Found Remix).wav
     Peak level 100.0 %
     Track quality 100.0 %
     Test CRC 9A1B16AB
     Copy CRC 9A1B16AB
     Track not present in AccurateRip database
     Copy OK
Track 10
     Filename E:\DYM - The Swarm\tracks\10. DYM - Autonomy Of The Will (Die Sektor Remix).wav
     Peak level 98.9 %
     Track quality 100.0 %
     Test CRC F9230D54
     Copy CRC F9230D54
     Track not present in AccurateRip database
     Copy OK
Track 11
     Filename E:\DYM - The Swarm\tracks\11. DYM - Life Sized (CompUterus Remix).wav
     Peak level 99.8 %
     Track quality 99.9 %
     Test CRC 844105AC
     Copy CRC 844105AC
     Track not present in AccurateRip database
     Copy OK
Track 12
     Filename E:\DYM - The Swarm\tracks\12. DYM - Touch (C-Lekktor Remix).wav
     Pre-gap length  0:00:00.06
     Peak level 98.7 %
     Track quality 100.0 %
     Test CRC 0136A12F
     Copy CRC 0136A12F
     Track not present in AccurateRip database
     Copy OK
Track 13
     Filename E:\DYM - The Swarm\tracks\13. DYM - Martha Monoxide (DYM Remix).wav
     Peak level 100.0 %
     Track quality 100.0 %
     Test CRC 97F853D1
     Copy CRC 97F853D1
     Track not present in AccurateRip database
     Copy OK
Track 14
     Filename E:\DYM - The Swarm\tracks\14. DYM - Government Stomp! (Encephalon Remix).wav
     Peak level 96.6 %
     Track quality 99.9 %
     Test CRC D8A26E67
     Copy CRC D8A26E67
     Track not present in AccurateRip database
     Copy OK
Track 15
     Filename E:\DYM - The Swarm\tracks\15. DYM - The Invilid (Amduscia Remix).wav
     Peak level 98.9 %
     Track quality 100.0 %
     Test CRC 1422600F
     Copy CRC 1422600F
     Track not present in AccurateRip database
     Copy OK
Track 16
     Filename E:\DYM - The Swarm\tracks\16. DYM - Sin Phony (Fractured Remix).wav
     Peak level 98.9 %
     Track quality 99.9 %
     Test CRC C233E137
     Copy CRC C233E137
     Track not present in AccurateRip database
     Copy OK
None of the tracks are present in the AccurateRip database
No errors occurred
End of status report
Код:
REM GENRE Electronic
REM DATE 2011
REM DISCID F1107A10
REM COMMENT "ExactAudioCopy v0.99pb5"
PERFORMER "DYM"
TITLE "The Swarm"
FILE "01. DYM - Abbra Cadaver.wav" WAVE
  TRACK 01 AUDIO
    TITLE "Abbra Cadaver"
    PERFORMER "DYM"
    INDEX 01 00:00:00
FILE "02. DYM - For Katherine.wav" WAVE
  TRACK 02 AUDIO
    TITLE "For Katherine"
    PERFORMER "DYM"
    INDEX 01 00:00:00
FILE "03. DYM - Right To Fail.wav" WAVE
  TRACK 03 AUDIO
    TITLE "Right To Fail"
    PERFORMER "DYM"
    INDEX 01 00:00:00
FILE "04. DYM - W.M.D..wav" WAVE
  TRACK 04 AUDIO
    TITLE "W.M.D."
    PERFORMER "DYM"
    INDEX 01 00:00:00
FILE "05. DYM - Lude.wav" WAVE
  TRACK 05 AUDIO
    TITLE "Lude"
    PERFORMER "DYM"
    INDEX 01 00:00:00
FILE "06. DYM - Swarm (Minimal Mix).wav" WAVE
  TRACK 06 AUDIO
    TITLE "Swarm (Minimal Mix)"
    PERFORMER "DYM"
    INDEX 01 00:00:00
FILE "07. DYM - Bender (Sincere Trade Remix).wav" WAVE
  TRACK 07 AUDIO
    TITLE "Bender (Sincere Trade Remix)"
    PERFORMER "DYM"
    INDEX 01 00:00:00
FILE "08. DYM - EBGM (PreEmptive Strike 0.1 Remix).wav" WAVE
  TRACK 08 AUDIO
    TITLE "EBGM (PreEmptive Strike 0.1 Remix)"
    PERFORMER "DYM"
    INDEX 01 00:00:00
FILE "09. DYM - NeuWorldBrave (Not Found Remix).wav" WAVE
  TRACK 09 AUDIO
    TITLE "NeuWorldBrave (Not Found Remix)"
    PERFORMER "DYM"
    INDEX 01 00:00:00
FILE "10. DYM - Autonomy Of The Will (Die Sektor Remix).wav" WAVE
  TRACK 10 AUDIO
    TITLE "Autonomy Of The Will (Die Sektor Remix)"
    PERFORMER "DYM"
    INDEX 01 00:00:00
FILE "11. DYM - Life Sized (CompUterus Remix).wav" WAVE
  TRACK 11 AUDIO
    TITLE "Life Sized (CompUterus Remix)"
    PERFORMER "DYM"
    INDEX 01 00:00:00
  TRACK 12 AUDIO
    TITLE "Touch (C-Lekktor Remix)"
    PERFORMER "DYM"
    INDEX 00 03:45:29
FILE "12. DYM - Touch (C-Lekktor Remix).wav" WAVE
    INDEX 01 00:00:00
FILE "13. DYM - Martha Monoxide (DYM Remix).wav" WAVE
  TRACK 13 AUDIO
    TITLE "Martha Monoxide (DYM Remix)"
    PERFORMER "DYM"
    INDEX 01 00:00:00
FILE "14. DYM - Government Stomp! (Encephalon Remix).wav" WAVE
  TRACK 14 AUDIO
    TITLE "Government Stomp! (Encephalon Remix)"
    PERFORMER "DYM"
    INDEX 01 00:00:00
FILE "15. DYM - The Invilid (Amduscia Remix).wav" WAVE
  TRACK 15 AUDIO
    TITLE "The Invilid (Amduscia Remix)"
    PERFORMER "DYM"
    INDEX 01 00:00:00
FILE "16. DYM - Sin Phony (Fractured Remix).wav" WAVE
  TRACK 16 AUDIO
    TITLE "Sin Phony (Fractured Remix)"
    PERFORMER "DYM"
    INDEX 01 00:00:00
Код:
Начато: воскресенье, 14. 08. 2011. - 10:28.10
Найдено файлов: 16
01 -===- трек 1 в приводе PIONEER BD-RW   BDR-206M
  Трек успешно извлечён
  Заключение: этот трек - CDDA с вероятностью 99%
  Временный файл удалён.
02 -===- трек 2 в приводе PIONEER BD-RW   BDR-206M
  Трек успешно извлечён
  Заключение: этот трек - CDDA с вероятностью 42%
  Временный файл удалён.
03 -===- трек 3 в приводе PIONEER BD-RW   BDR-206M
  Трек успешно извлечён
  Заключение: этот трек - CDDA с вероятностью 99%
  Временный файл удалён.
04 -===- трек 4 в приводе PIONEER BD-RW   BDR-206M
  Трек успешно извлечён
  Заключение: этот трек - CDDA с вероятностью 100%
  Временный файл удалён.
05 -===- трек 5 в приводе PIONEER BD-RW   BDR-206M
  Трек успешно извлечён
  Заключение: этот трек - CDDA с вероятностью 100%
  Временный файл удалён.
06 -===- трек 6 в приводе PIONEER BD-RW   BDR-206M
  Трек успешно извлечён
  Заключение: этот трек - CDDA с вероятностью 100%
  Временный файл удалён.
07 -===- трек 7 в приводе PIONEER BD-RW   BDR-206M
  Трек успешно извлечён
  Заключение: этот трек - MPEG с вероятностью 100%
  Временный файл удалён.
08 -===- трек 8 в приводе PIONEER BD-RW   BDR-206M
  Трек успешно извлечён
  Заключение: этот трек - CDDA с вероятностью 100%
  Временный файл удалён.
09 -===- трек 9 в приводе PIONEER BD-RW   BDR-206M
  Трек успешно извлечён
  Заключение: этот трек - CDDA с вероятностью 100%
  Временный файл удалён.
10 -===- трек 10 в приводе PIONEER BD-RW   BDR-206M
  Трек успешно извлечён
  Заключение: этот трек - CDDA с вероятностью 100%
  Временный файл удалён.
11 -===- трек 11 в приводе PIONEER BD-RW   BDR-206M
  Трек успешно извлечён
  Заключение: этот трек - CDDA с вероятностью 100%
  Временный файл удалён.
12 -===- трек 12 в приводе PIONEER BD-RW   BDR-206M
  Трек успешно извлечён
  Заключение: этот трек - CDDA с вероятностью 100%
  Временный файл удалён.
13 -===- трек 13 в приводе PIONEER BD-RW   BDR-206M
  Трек успешно извлечён
  Заключение: этот трек - CDDA с вероятностью 100%
  Временный файл удалён.
14 -===- трек 14 в приводе PIONEER BD-RW   BDR-206M
  Трек успешно извлечён
  Заключение: этот трек - MPEG с вероятностью 99%
  Временный файл удалён.
15 -===- трек 15 в приводе PIONEER BD-RW   BDR-206M
  Трек успешно извлечён
  Заключение: этот трек - CDDA с вероятностью 100%
  Временный файл удалён.
16 -===- трек 16 в приводе PIONEER BD-RW   BDR-206M
  Трек успешно извлечён
  Заключение: этот трек - CDDA с вероятностью 100%
  Временный файл удалён.
Завершено: воскресенье, 14. 08. 2011. - 10:39.49 (Время операции: 0:11.39)
Доп. информация: http://www.discogs.com/Dym-The-Swarm/release/2842951
http://www.myspace.com/dym
Aaron Campbell, Ian Smits
Правила, инструкции, FAQ!!!
Торрент  Добавлен [26 июн 2020, 20:21] Скачать торрент Магнет ссылка
Скачать торрент
[ Размер 12.88 КБ / Просмотров 12 ]

Статус
Проверен 
 
Размер  537 МБ
Приватный: Нет (DHT включён)
.torrent скачан  0
 


     Отправить личное сообщение
   
Страница 1 из 1
Показать сообщения за:  Поле сортировки  
Начать новую тему Ответить на тему


Сейчас этот форум просматривают: нет зарегистрированных пользователей и гости: 0


Вы не можете начинать темы
Вы не можете отвечать на сообщения
Вы не можете редактировать свои сообщения
Вы не можете удалять свои сообщения
Вы не можете добавлять вложения

Перейти:  
cron