Начать новую тему Ответить на тему
Статистика раздачи
Размер: 326.4 МБ | Добавлен: 26 июн 2020, 17:57 | Скачали: 0
Сидеров: 0  [0 байт/сек]    Личеров: 0  [0 байт/сек]
Пред. тема | След. тема 

Автор
Сообщение

СообщениеДобавлено: 26 июн 2020, 17:57 

Ответить с цитатой 

Diskonnekted - Old School Policies
Жанр: EBM, Electro
Год выпуска диска: 2008
Производитель диска: Бельгия
Аудио кодек: APE
Тип рипа: image+.cue
Продолжительность: 00:47:33
Трэклист:
01. Pray Vote Donate Buy
02. Prayer (Stand Up)
03. Adrenaline (Ft Frank M Spinath)
04. Big Imaginary Friend
05. Storm (Ft Frank M Spinath)
06. Nu Speak
07. Ten Years
08. Anger (Ft SMP)
09. When I Come To Fall
10. Prayer (Kneel Down)
Код:
Exact Audio Copy V0.99 prebeta 4 from 23. January 2008
Отчёт EAC об извлечении, выполненном 10. июля 2009, 21:31
Diskonnekted / Diskonnekted - Old School Policies
Дисковод: Optiarc DVD RW AD-7201S   Adapter: 1  ID: 1
Режим чтения                 : Достоверность
Использование точного потока : Да
Отключение кэша аудио        : Да
Использование указателей C2  : Нет
Коррекция смещения при чтении                     : 48
Способность читать области Lead-in и Lead-out     : Нет
Заполнение пропущенных сэмплов тишиной            : Да
Удаление блоков с тишиной в начале и конце        : Нет
При вычислениях CRC использовались нулевые сэмплы : Да
Интерфейс                                         : Установленный внешний ASPI-интерфейс
Выходной формат : Внутренние WAV-операции
Формат сэмплов  : 44.100 Гц; 16 бит; стерео
TOC извлечённого CD
     Трек |   Старт  | Длительность | Начальный сектор | Конечный сектор
    ---------------------------------------------------------------------
       1  |  0:00.00 |    4:57.06   |           0      |      22280
       2  |  4:57.06 |    3:51.06   |       22281      |      39611
       3  |  8:48.12 |    4:14.11   |       39612      |      58672
       4  | 13:02.23 |    4:16.37   |       58673      |      77909
       5  | 17:18.60 |    5:49.49   |       77910      |     104133
       6  | 23:08.34 |    4:08.00   |      104134      |     122733
       7  | 27:16.34 |    3:25.50   |      122734      |     138158
       8  | 30:42.09 |    5:14.35   |      138159      |     161743
       9  | 35:56.44 |    4:21.43   |      161744      |     181361
      10  | 40:18.12 |    7:17.60   |      181362      |     214196
Характеристики диапазона извлечения и сообщения об ошибках
Выбранный диапазон
     Имя файла D:\Documents and Settings\Rodexx\Рабочий стол\Diskonnekted-Old School Policies.2008\Diskonnekted - Diskonnekted - Old School Policies.wav
     Пиковый уровень 100.0 %
     Качество диапазона 100.0 %
     CRC копии F322F4CA
     Копирование... OK
Ошибок не произошло
Конец отчёта
Label: Alfa Matrix
Catalog#: AM-1104CD
Format: CD, Album
Country: Germany
Released: 2008
Genre: Electronic
Style: EBM, Electro
Правила, инструкции, FAQ!!!
Торрент  Добавлен [26 июн 2020, 17:57] Скачать торрент Магнет ссылка
Скачать торрент
[ Размер 13.43 КБ / Просмотров 3 ]

Статус
Проверен 
 
Размер  326.4 МБ
Приватный: Нет (DHT включён)
.torrent скачан  0
 


     Отправить личное сообщение
   
Страница 1 из 1
Показать сообщения за:  Поле сортировки  
Начать новую тему Ответить на тему


Сейчас этот форум просматривают: нет зарегистрированных пользователей и гости: 0


Вы не можете начинать темы
Вы не можете отвечать на сообщения
Вы не можете редактировать свои сообщения
Вы не можете удалять свои сообщения
Вы не можете добавлять вложения

Перейти:  
cron