Начать новую тему Ответить на тему
Статистика раздачи
Размер: 303.95 МБ | Добавлен: 26 июн 2020, 20:11 | Скачали: 0
Сидеров: 0  [0 байт/сек]    Личеров: 0  [0 байт/сек]
Пред. тема | След. тема 

Автор
Сообщение

СообщениеДобавлено: 26 июн 2020, 20:11 

Ответить с цитатой 

In Strict Confidence - Silver Bullets (EP)
Жанр: EBM, Electro, Darkwave
Год выпуска диска: 2010
Производитель диска: Minuswelt Musikfabrik / Sonic Seducer / MINUS 039
Аудио кодек: FLAC
Тип рипа: tracks+.cue
Битрейт аудио: lossless
Продолжительность: 40:02
Источник: what.cd / Yuriko
Трэклист:
[03:49] 01. Silver Bullets (Single Version)
[05:13] 02. Rain (Extended Version)
[04:35] 03. Silver Bullets (X-Fusion Remix)
[06:21] 04. Silver Bullets (Controlled Fusion Remix)
[04:02] 05. No Refuge In The Night
[04:31] 06. Silver Bullets (Clubmix)
[04:11] 07. Why Did I Lose My Faith?
[07:16] 08. Silver Bullets (Extended Version)
Доп. информация: Сканы взял с discogs.
Код:
Exact Audio Copy V0.99 prebeta 5 from 4. May 2009
EAC extraction logfile from 24. March 2010, 9:31
In Strict Confidence / Silver Bullets
Used drive  : HL-DT-STDVDRAM GSA-H42L   Adapter: 1  ID: 0
Read mode               : Secure
Utilize accurate stream : Yes
Defeat audio cache      : Yes
Make use of C2 pointers : No
Read offset correction                      : 667
Overread into Lead-In and Lead-Out          : No
Fill up missing offset samples with silence : Yes
Delete leading and trailing silent blocks   : No
Null samples used in CRC calculations       : Yes
Used interface                              : Native Win32 interface for Win NT & 2000
Gap handling                                : Appended to previous track
Used output format              : User Defined Encoder
Selected bitrate                : 320 kBit/s
Quality                         : High
Add ID3 tag                     : No
Command line compressor         : C:\Programme\Exact Audio Copy\Flac\flac.exe
Additional command line options : -V -8 -T "artist=%a" -T "title=%t" -T "album=%g" -T "date=%y" -T "tracknumber=%n" -T "genre=%m" %s
TOC of the extracted CD
     Track |   Start  |  Length  | Start sector | End sector
    ---------------------------------------------------------
        1  |  0:00.00 |  3:49.06 |         0    |    17180
        2  |  3:49.06 |  5:13.49 |     17181    |    40704
        3  |  9:02.55 |  4:35.39 |     40705    |    61368
        4  | 13:38.19 |  6:21.64 |     61369    |    90007
        5  | 20:00.08 |  4:02.01 |     90008    |   108158
        6  | 24:02.09 |  4:31.73 |    108159    |   128556
        7  | 28:34.07 |  4:11.41 |    128557    |   147422
        8  | 32:45.48 |  7:16.28 |    147423    |   180150
Track  1
     Filename C:\EACrips\In Strict Confidence - 2010 - Silver Bullets [FLAC]\01 - Silver Bullets (Single Version).wav
     Pre-gap length  0:00:02.00
     Peak level 100.0 %
     Track quality 100.0 %
     Test CRC EFE19674
     Copy CRC EFE19674
     Accurately ripped (confidence 1)  [894E6926]
     Copy OK
Track  2
     Filename C:\EACrips\In Strict Confidence - 2010 - Silver Bullets [FLAC]\02 - Rain (Extended Version).wav
     Pre-gap length  0:00:01.92
     Peak level 100.0 %
     Track quality 100.0 %
     Test CRC F7FBDF13
     Copy CRC F7FBDF13
     Accurately ripped (confidence 1)  [A8396CD4]
     Copy OK
Track  3
     Filename C:\EACrips\In Strict Confidence - 2010 - Silver Bullets [FLAC]\03 - Silver Bullets (X-Fusion Remix).wav
     Pre-gap length  0:00:01.89
     Peak level 89.1 %
     Track quality 100.0 %
     Test CRC B70E183D
     Copy CRC B70E183D
     Accurately ripped (confidence 1)  [4BE76232]
     Copy OK
Track  4
     Filename C:\EACrips\In Strict Confidence - 2010 - Silver Bullets [FLAC]\04 - Silver Bullets (Controlled Fusion Remix).wav
     Pre-gap length  0:00:01.94
     Peak level 100.0 %
     Track quality 99.9 %
     Test CRC 5F5EFC28
     Copy CRC 5F5EFC28
     Accurately ripped (confidence 1)  [9CC93819]
     Copy OK
Track  5
     Filename C:\EACrips\In Strict Confidence - 2010 - Silver Bullets [FLAC]\05 - No Refuge In The Night.wav
     Pre-gap length  0:00:01.94
     Peak level 100.0 %
     Track quality 100.0 %
     Test CRC 40F91EEC
     Copy CRC 40F91EEC
     Accurately ripped (confidence 1)  [431B89F1]
     Copy OK
Track  6
     Filename C:\EACrips\In Strict Confidence - 2010 - Silver Bullets [FLAC]\06 - Silver Bullets (Clubmix).wav
     Pre-gap length  0:00:01.89
     Peak level 100.0 %
     Track quality 99.9 %
     Test CRC A30661EC
     Copy CRC A30661EC
     Accurately ripped (confidence 1)  [EBFCA184]
     Copy OK
Track  7
     Filename C:\EACrips\In Strict Confidence - 2010 - Silver Bullets [FLAC]\07 - Why Did I Lose My Faith .wav
     Pre-gap length  0:00:01.98
     Peak level 100.0 %
     Track quality 100.0 %
     Test CRC 5675C5E8
     Copy CRC 5675C5E8
     Accurately ripped (confidence 1)  [2B709149]
     Copy OK
Track  8
     Filename C:\EACrips\In Strict Confidence - 2010 - Silver Bullets [FLAC]\08 - Silver Bullets (Extended Version).wav
     Pre-gap length  0:00:01.89
     Peak level 100.0 %
     Track quality 99.9 %
     Test CRC C99013BB
     Copy CRC C99013BB
     Accurately ripped (confidence 1)  [357C6096]
     Copy OK
All tracks accurately ripped
No errors occurred
End of status report
Код:
REM GENRE Electronic
REM DATE 2010
REM DISCID 57096208
REM COMMENT "ExactAudioCopy v0.99pb5"
FILE "01 - Silver Bullets (Single Version).wav" WAVE
  TRACK 01 AUDIO
    INDEX 01 00:00:00
  TRACK 02 AUDIO
    INDEX 00 03:47:12
FILE "02 - Rain (Extended Version).wav" WAVE
    INDEX 01 00:00:00
  TRACK 03 AUDIO
    INDEX 00 05:11:57
FILE "03 - Silver Bullets (X-Fusion Remix).wav" WAVE
    INDEX 01 00:00:00
  TRACK 04 AUDIO
    INDEX 00 04:33:43
FILE "04 - Silver Bullets (Controlled Fusion Remix).wav" WAVE
    INDEX 01 00:00:00
  TRACK 05 AUDIO
    INDEX 00 06:19:68
FILE "05 - No Refuge In The Night.wav" WAVE
    INDEX 01 00:00:00
  TRACK 06 AUDIO
    INDEX 00 04:00:09
FILE "06 - Silver Bullets (Clubmix).wav" WAVE
    INDEX 01 00:00:00
  TRACK 07 AUDIO
    INDEX 00 04:29:74
FILE "07 - Why Did I Lose My Faith .wav" WAVE
    INDEX 01 00:00:00
  TRACK 08 AUDIO
    INDEX 00 04:09:49
FILE "08 - Silver Bullets (Extended Version).wav" WAVE
    INDEX 01 00:00:00
Правила, инструкции, FAQ!!!
Торрент  Добавлен [26 июн 2020, 20:11] Скачать торрент Магнет ссылка
Скачать торрент
[ Размер 5.7 КБ / Просмотров 12 ]

Статус
Проверен 
 
Размер  303.95 МБ
Приватный: Нет (DHT включён)
.torrent скачан  0
 


     Отправить личное сообщение
   
Страница 1 из 1
Показать сообщения за:  Поле сортировки  
Начать новую тему Ответить на тему


Сейчас этот форум просматривают: нет зарегистрированных пользователей и гости: 0


Вы не можете начинать темы
Вы не можете отвечать на сообщения
Вы не можете редактировать свои сообщения
Вы не можете удалять свои сообщения
Вы не можете добавлять вложения

Перейти:  
cron