Начать новую тему Ответить на тему
Статистика раздачи
Размер: 476.09 МБ | Добавлен: 26 июн 2020, 17:07 | Скачали: 0
Сидеров: 0  [0 байт/сек]    Личеров: 0  [0 байт/сек]
Пред. тема | След. тема 

Автор
Сообщение

СообщениеДобавлено: 26 июн 2020, 17:07 

Ответить с цитатой 

Cyan Inc. / Better Leave Me Dying
Жанр: EBM, Electro, Darkwave
Страна-производитель диска: Germany
Год издания диска: 2007
Издатель (лейбл): Scanner
Номер по каталогу: SC 066
Страна: Germany
Аудио кодек: FLAC (*.flac)
Тип рипа: tracks+.cue
Битрейт аудио: lossless
Продолжительность: 67:22
Источник (релизер): CD-R
Наличие сканов в содержимом раздачи: нет
Треклист:
1 Entrance 1:32
2 Holocaust O' Love 5:54
3 Children Without Amen 5:06
4 Midas Touch 4:08
5 Turmoil Reigns 5:01
6 In My Suitcase 4:32
7 Abscence Of Light 3:47
8 Leatherbound Lil' Jesus 5:29
9 A Dream They Say 5:33
10 Daddycated 4:58
11 Blame A Butterfly 4:49
12 Song Of Wrath 5:24
13 Zombie Machine 4:02
14 Birth Of Words 7:03
Код:
Exact Audio Copy V0.99 prebeta 5 from 4. May 2009
EAC extraction logfile from 20. December 2010, 21:16
Cyan / Better Leave Me Dying
Used drive  : Optiarc DVD RW AD-5170A   Adapter: 1  ID: 0
Read mode               : Secure
Utilize accurate stream : Yes
Defeat audio cache      : Yes
Make use of C2 pointers : No
Read offset correction                      : 48
Overread into Lead-In and Lead-Out          : No
Fill up missing offset samples with silence : Yes
Delete leading and trailing silent blocks   : No
Null samples used in CRC calculations       : Yes
Used interface                              : Native Win32 interface for Win NT & 2000
Gap handling                                : Appended to previous track
Used output format              : User Defined Encoder
Selected bitrate                : 128 kBit/s
Quality                         : High
Add ID3 tag                     : No
Command line compressor         : C:\Program Files\Exact Audio Copy\Flac\flac.exe
Additional command line options : -8 -V -T "ARTIST=%a" -T "TITLE=%t" -T "ALBUM=%g" -T "DATE=%y" -T "TRACKNUMBER=%n" -T "GENRE=%m" -T "COMMENT=EAC FLAC -8" %s
TOC of the extracted CD
     Track |   Start  |  Length  | Start sector | End sector
    ---------------------------------------------------------
        1  |  0:00.00 |  1:31.63 |         0    |     6887
        2  |  1:31.63 |  5:54.28 |      6888    |    33465
        3  |  7:26.16 |  5:06.03 |     33466    |    56418
        4  | 12:32.19 |  4:08.02 |     56419    |    75020
        5  | 16:40.21 |  5:01.29 |     75021    |    97624
        6  | 21:41.50 |  4:32.52 |     97625    |   118076
        7  | 26:14.27 |  3:46.71 |    118077    |   135097
        8  | 30:01.23 |  5:29.17 |    135098    |   159789
        9  | 35:30.40 |  5:33.03 |    159790    |   184767
       10  | 41:03.43 |  4:58.58 |    184768    |   207175
       11  | 46:02.26 |  4:49.58 |    207176    |   228908
       12  | 50:52.09 |  5:24.51 |    228909    |   253259
       13  | 56:16.60 |  4:02.14 |    253260    |   271423
       14  | 60:18.74 |  7:04.01 |    271424    |   303224
Track  1
     Filename I:\Torrents\Up\Cyan Inc\Cyan Inc. - Better Leave Me Dying - 2007\tracks\01. Cyan – Entrance.wav
     Pre-gap length  0:00:02.00
     Peak level 95.9 %
     Track quality 100.0 %
     Test CRC 36F2AB81
     Copy CRC 36F2AB81
     Cannot be verified as accurate (confidence 1)  [DB5CAAC0], AccurateRip returned [8B38D1AA]
     Copy OK
Track  2
     Filename I:\Torrents\Up\Cyan Inc\Cyan Inc. - Better Leave Me Dying - 2007\tracks\02. Cyan – Holocaust O' Love.wav
     Peak level 94.5 %
     Track quality 100.0 %
     Test CRC 46BD7F8F
     Copy CRC 46BD7F8F
     Cannot be verified as accurate (confidence 1)  [586414EE], AccurateRip returned [53D3FB52]
     Copy OK
Track  3
     Filename I:\Torrents\Up\Cyan Inc\Cyan Inc. - Better Leave Me Dying - 2007\tracks\03. Cyan – Children Without Amen.wav
     Peak level 96.6 %
     Track quality 100.0 %
     Test CRC 6DCBEECE
     Copy CRC 6DCBEECE
     Cannot be verified as accurate (confidence 1)  [4C5CD73F], AccurateRip returned [FFB82109]
     Copy OK
Track  4
     Filename I:\Torrents\Up\Cyan Inc\Cyan Inc. - Better Leave Me Dying - 2007\tracks\04. Cyan – Midas Touch.wav
     Peak level 96.1 %
     Track quality 99.9 %
     Test CRC 98E0AE58
     Copy CRC 98E0AE58
     Cannot be verified as accurate (confidence 1)  [323DDF15], AccurateRip returned [3D2CE799]
     Copy OK
Track  5
     Filename I:\Torrents\Up\Cyan Inc\Cyan Inc. - Better Leave Me Dying - 2007\tracks\05. Cyan – Turmoil Reigns.wav
     Peak level 96.6 %
     Track quality 100.0 %
     Test CRC 56572768
     Copy CRC 56572768
     Cannot be verified as accurate (confidence 1)  [7C507623], AccurateRip returned [CE930A1B]
     Copy OK
Track  6
     Filename I:\Torrents\Up\Cyan Inc\Cyan Inc. - Better Leave Me Dying - 2007\tracks\06. Cyan – In My Suitcase.wav
     Peak level 96.5 %
     Track quality 100.0 %
     Test CRC 8312B970
     Copy CRC 8312B970
     Cannot be verified as accurate (confidence 1)  [5E851A3D], AccurateRip returned [45496FF5]
     Copy OK
Track  7
     Filename I:\Torrents\Up\Cyan Inc\Cyan Inc. - Better Leave Me Dying - 2007\tracks\07. Cyan – Abscence Of Light.wav
     Peak level 96.8 %
     Track quality 100.0 %
     Test CRC 9F911B1F
     Copy CRC 9F911B1F
     Cannot be verified as accurate (confidence 1)  [C19D5A21], AccurateRip returned [470668B7]
     Copy OK
Track  8
     Filename I:\Torrents\Up\Cyan Inc\Cyan Inc. - Better Leave Me Dying - 2007\tracks\08. Cyan – Leatherbound Lil' Jesus.wav
     Peak level 94.7 %
     Track quality 99.9 %
     Test CRC 3DEADDBC
     Copy CRC 3DEADDBC
     Cannot be verified as accurate (confidence 1)  [961F35E4], AccurateRip returned [AACE7F3E]
     Copy OK
Track  9
     Filename I:\Torrents\Up\Cyan Inc\Cyan Inc. - Better Leave Me Dying - 2007\tracks\09. Cyan – A Dream They Say.wav
     Peak level 96.6 %
     Track quality 99.9 %
     Test CRC 9E809B3A
     Copy CRC 9E809B3A
     Cannot be verified as accurate (confidence 1)  [496AD64F], AccurateRip returned [A376A499]
     Copy OK
Track 10
     Filename I:\Torrents\Up\Cyan Inc\Cyan Inc. - Better Leave Me Dying - 2007\tracks\10. Cyan – Daddycated.wav
     Peak level 97.0 %
     Track quality 100.0 %
     Test CRC 5C181605
     Copy CRC 5C181605
     Cannot be verified as accurate (confidence 1)  [D5BFBE85], AccurateRip returned [04CD0365]
     Copy OK
Track 11
     Filename I:\Torrents\Up\Cyan Inc\Cyan Inc. - Better Leave Me Dying - 2007\tracks\11. Cyan – Blame A Butterfly.wav
     Peak level 97.0 %
     Track quality 100.0 %
     Test CRC CEA3798F
     Copy CRC CEA3798F
     Cannot be verified as accurate (confidence 1)  [159E6B97], AccurateRip returned [747FF9F5]
     Copy OK
Track 12
     Filename I:\Torrents\Up\Cyan Inc\Cyan Inc. - Better Leave Me Dying - 2007\tracks\12. Cyan – Song Of Wrath.wav
     Peak level 96.3 %
     Track quality 100.0 %
     Test CRC BD9DEDB6
     Copy CRC BD9DEDB6
     Cannot be verified as accurate (confidence 1)  [E91FD344], AccurateRip returned [2FF86D74]
     Copy OK
Track 13
     Filename I:\Torrents\Up\Cyan Inc\Cyan Inc. - Better Leave Me Dying - 2007\tracks\13. Cyan – Zombie Machine.wav
     Peak level 96.4 %
     Track quality 100.0 %
     Test CRC 67C948AC
     Copy CRC 67C948AC
     Cannot be verified as accurate (confidence 1)  [E16FFACD], AccurateRip returned [6DFF8B6D]
     Copy OK
Track 14
     Filename I:\Torrents\Up\Cyan Inc\Cyan Inc. - Better Leave Me Dying - 2007\tracks\14. Cyan – Birth Of Words.wav
     Peak level 96.2 %
     Track quality 100.0 %
     Test CRC C879754E
     Copy CRC C879754E
     Cannot be verified as accurate (confidence 1)  [89B216BB], AccurateRip returned [6A4C996D]
     Copy OK
No tracks could be verified as accurate
You may have a different pressing from the one(s) in the database
No errors occurred
End of status report
Код:
REM GENRE Darkwave
REM DATE 2007
REM DISCID AF0FCB0E
REM COMMENT "ExactAudioCopy v0.99pb5"
PERFORMER "Cyan"
TITLE "Better Leave Me Dying"
FILE "01. Cyan – Entrance.wav" WAVE
  TRACK 01 AUDIO
    TITLE "Entrance"
    PERFORMER "Cyan"
    INDEX 01 00:00:00
FILE "02. Cyan – Holocaust O' Love.wav" WAVE
  TRACK 02 AUDIO
    TITLE "Holocaust O' Love"
    PERFORMER "Cyan"
    INDEX 01 00:00:00
FILE "03. Cyan – Children Without Amen.wav" WAVE
  TRACK 03 AUDIO
    TITLE "Children Without Amen"
    PERFORMER "Cyan"
    INDEX 01 00:00:00
FILE "04. Cyan – Midas Touch.wav" WAVE
  TRACK 04 AUDIO
    TITLE "Midas Touch"
    PERFORMER "Cyan"
    INDEX 01 00:00:00
FILE "05. Cyan – Turmoil Reigns.wav" WAVE
  TRACK 05 AUDIO
    TITLE "Turmoil Reigns"
    PERFORMER "Cyan"
    INDEX 01 00:00:00
FILE "06. Cyan – In My Suitcase.wav" WAVE
  TRACK 06 AUDIO
    TITLE "In My Suitcase"
    PERFORMER "Cyan"
    INDEX 01 00:00:00
FILE "07. Cyan – Abscence Of Light.wav" WAVE
  TRACK 07 AUDIO
    TITLE "Abscence Of Light"
    PERFORMER "Cyan"
    INDEX 01 00:00:00
FILE "08. Cyan – Leatherbound Lil' Jesus.wav" WAVE
  TRACK 08 AUDIO
    TITLE "Leatherbound Lil' Jesus"
    PERFORMER "Cyan"
    INDEX 01 00:00:00
FILE "09. Cyan – A Dream They Say.wav" WAVE
  TRACK 09 AUDIO
    TITLE "A Dream They Say"
    PERFORMER "Cyan"
    INDEX 01 00:00:00
FILE "10. Cyan – Daddycated.wav" WAVE
  TRACK 10 AUDIO
    TITLE "Daddycated"
    PERFORMER "Cyan"
    INDEX 01 00:00:00
FILE "11. Cyan – Blame A Butterfly.wav" WAVE
  TRACK 11 AUDIO
    TITLE "Blame A Butterfly"
    PERFORMER "Cyan"
    INDEX 01 00:00:00
FILE "12. Cyan – Song Of Wrath.wav" WAVE
  TRACK 12 AUDIO
    TITLE "Song Of Wrath"
    PERFORMER "Cyan"
    INDEX 01 00:00:00
FILE "13. Cyan – Zombie Machine.wav" WAVE
  TRACK 13 AUDIO
    TITLE "Zombie Machine"
    PERFORMER "Cyan"
    INDEX 01 00:00:00
FILE "14. Cyan – Birth Of Words.wav" WAVE
  TRACK 14 AUDIO
    TITLE "Birth Of Words"
    PERFORMER "Cyan"
    INDEX 01 00:00:00
Код:
Started at: понедельник, 20. 12. 2010. - 15:05.32
14 files found
01 -===- track 1 in drive Optiarc DVD RW AD-5170A
  Track ripped successfully
  Conclusion: this track is CDDA with probability 100%
  Tempfile successfully deleted.
02 -===- track 2 in drive Optiarc DVD RW AD-5170A
  Track ripped successfully
  Conclusion: this track is CDDA with probability 100%
  Tempfile successfully deleted.
03 -===- track 3 in drive Optiarc DVD RW AD-5170A
  Track ripped successfully
  Conclusion: this track is CDDA with probability 99%
  Tempfile successfully deleted.
04 -===- track 4 in drive Optiarc DVD RW AD-5170A
  Track ripped successfully
  Conclusion: this track is CDDA with probability 100%
  Tempfile successfully deleted.
05 -===- track 5 in drive Optiarc DVD RW AD-5170A
  Track ripped successfully
  Conclusion: this track is CDDA with probability 100%
  Tempfile successfully deleted.
06 -===- track 6 in drive Optiarc DVD RW AD-5170A
  Track ripped successfully
  Conclusion: this track is CDDA with probability 100%
  Tempfile successfully deleted.
07 -===- track 7 in drive Optiarc DVD RW AD-5170A
  Track ripped successfully
  Conclusion: this track is CDDA with probability 100%
  Tempfile successfully deleted.
08 -===- track 8 in drive Optiarc DVD RW AD-5170A
  Track ripped successfully
  Conclusion: this track is CDDA with probability 100%
  Tempfile successfully deleted.
09 -===- track 9 in drive Optiarc DVD RW AD-5170A
  Track ripped successfully
  Conclusion: this track is CDDA with probability 99%
  Tempfile successfully deleted.
10 -===- track 10 in drive Optiarc DVD RW AD-5170A
  Track ripped successfully
  Conclusion: this track is CDDA with probability 99%
  Tempfile successfully deleted.
11 -===- track 11 in drive Optiarc DVD RW AD-5170A
  Track ripped successfully
  Conclusion: this track is CDDA with probability 100%
  Tempfile successfully deleted.
12 -===- track 12 in drive Optiarc DVD RW AD-5170A
  Track ripped successfully
  Conclusion: this track is CDDA with probability 100%
  Tempfile successfully deleted.
13 -===- track 13 in drive Optiarc DVD RW AD-5170A
  Track ripped successfully
  Conclusion: this track is CDDA with probability 100%
  Tempfile successfully deleted.
14 -===- track 14 in drive Optiarc DVD RW AD-5170A
  Track ripped successfully
  Conclusion: this track is CDDA with probability 100%
  Tempfile successfully deleted.
Finished at: понедельник, 20. 12. 2010. - 15:25.20 (operation time: 0:19.48)
Cyan Inc. - members:
Vocals & Lyrics - Cyan (Eternal Afflict)
Music & compositions - Per-Anders Kurenbach (Ex-Psyche, Yvy Demina)
Live Drums - Vic Chains (The Spook, Zero)
Правила, инструкции, FAQ!!!
Торрент  Добавлен [26 июн 2020, 17:07] Скачать торрент Магнет ссылка
Скачать торрент
[ Размер 20.75 КБ / Просмотров 4 ]

Статус
Проверен 
 
Размер  476.09 МБ
Приватный: Нет (DHT включён)
.torrent скачан  0
 


     Отправить личное сообщение
   
Страница 1 из 1
Показать сообщения за:  Поле сортировки  
Начать новую тему Ответить на тему


Сейчас этот форум просматривают: нет зарегистрированных пользователей и гости: 0


Вы не можете начинать темы
Вы не можете отвечать на сообщения
Вы не можете редактировать свои сообщения
Вы не можете удалять свои сообщения
Вы не можете добавлять вложения

Перейти:  
cron