Начать новую тему Ответить на тему
Статистика раздачи
Размер: 495.86 МБ | Добавлен: 26 июн 2020, 16:55 | Скачали: 0
Сидеров: 0  [0 байт/сек]    Личеров: 0  [0 байт/сек]
Пред. тема | След. тема 

Автор
Сообщение

СообщениеДобавлено: 26 июн 2020, 16:55 

Ответить с цитатой 

Controlled Fusion - Patient Zero
Жанр: EBM, Electro
Год выпуска диска: 2000
Производитель диска: Германия
Аудио кодек: APE
Тип рипа: image+.cue
Битрейт аудио: lossless
Продолжительность: 01:10:17
Трэклист:
01.War
02.Follow Me
03.Light Me Up
04.Drugfall ( Vocals - Fabricio Viscardi )
05.Galaxy Constellation
06.Hit That Perfect Beat
07.My Vision
08.Absent ( Vocals - Fabricio Viscardi )
09.Psychological Way
10.Steel Town
Код:
Exact Audio Copy V0.99 prebeta 5 from 4. May 2009
Отчёт EAC об извлечении, выполненном 26. июля 2009, 1:13
Controlled Fusion / Patient Zero
Дисковод: Optiarc DVD RW AD-7201S   Adapter: 1  ID: 1
Режим чтения                 : Достоверность
Использование точного потока : Да
Отключение кэша аудио        : Да
Использование указателей C2  : Нет
Коррекция смещения при чтении                     : 48
Способность читать области Lead-in и Lead-out     : Нет
Заполнение пропущенных сэмплов тишиной            : Да
Удаление блоков с тишиной в начале и конце        : Нет
При вычислениях CRC использовались нулевые сэмплы : Да
Интерфейс                                         : Установленный внешний ASPI-интерфейс
Выходной формат : Внутренние WAV-операции
Формат сэмплов  : 44.100 Гц; 16 бит; стерео
TOC извлечённого CD
     Трек |   Старт  | Длительность | Начальный сектор | Конечный сектор
    ---------------------------------------------------------------------
       1  |  0:00.00 |    4:51.06   |           0      |      21830
       2  |  4:51.06 |    6:40.13   |       21831      |      51843
       3  | 11:31.19 |    6:16.70   |       51844      |      80113
       4  | 17:48.14 |    4:51.44   |       80114      |     101982
       5  | 22:39.58 |    8:33.51   |      101983      |     140508
       6  | 31:13.34 |    3:47.44   |      140509      |     157577
       7  | 35:01.03 |    8:20.52   |      157578      |     195129
       8  | 43:21.55 |    7:08.47   |      195130      |     227276
       9  | 50:30.27 |    9:54.14   |      227277      |     271840
      10  | 60:24.41 |    9:45.41   |      271841      |     315756
Характеристики диапазона извлечения и сообщения об ошибках
Выбранный диапазон
     Имя файла D:\Documents and Settings\Rodexx\Рабочий стол\Controlled Fusion - Patient Zero\Controlled Fusion - Patient Zero.wav
     Пиковый уровень 100.0 %
     Качество диапазона 99.9 %
     CRC теста E6C65968
     CRC копии E6C65968
     Копирование... OK
Ошибок не произошло
Конец отчёта
Label: Bloodline
Catalog#: Line CD 010
Format: CD, Album
Country: Germany
Released: 2000
Genre: Electronic
Style: EBM, Electro
Правила, инструкции, FAQ!!!
Торрент  Добавлен [26 июн 2020, 16:55] Скачать торрент Магнет ссылка
Скачать торрент
[ Размер 20.24 КБ / Просмотров 3 ]

Статус
Проверен 
 
Размер  495.86 МБ
Приватный: Нет (DHT включён)
.torrent скачан  0
 


     Отправить личное сообщение
   
Страница 1 из 1
Показать сообщения за:  Поле сортировки  
Начать новую тему Ответить на тему


Сейчас этот форум просматривают: нет зарегистрированных пользователей и гости: 0


Вы не можете начинать темы
Вы не можете отвечать на сообщения
Вы не можете редактировать свои сообщения
Вы не можете удалять свои сообщения
Вы не можете добавлять вложения

Перейти:  
cron