Начать новую тему Ответить на тему
Статистика раздачи
Размер: 517.88 МБ | Добавлен: 26 июн 2020, 20:58 | Скачали: 0
Сидеров: 0  [0 байт/сек]    Личеров: 0  [0 байт/сек]
Пред. тема | След. тема 

Автор
Сообщение

СообщениеДобавлено: 26 июн 2020, 20:58 

Ответить с цитатой 

De:Ad:Cibel / Klondike
Жанр: EBM, Electro
Страна-производитель диска: Germany
Год издания диска: 2010
Издатель (лейбл): Echozone
Номер по каталогу: EZ10C475
Страна: Germany
Аудио кодек: FLAC (*.flac)
Тип рипа: image+.cue
Битрейт аудио: lossless
Продолжительность: 1:04:34.43
Источник (релизер): CD из личной коллекции.
Наличие сканов в содержимом раздачи: да
Треклист:
01. Hotel Lux (Intro) 2:35
02. Jerusalem Syndrom 4:27
03. One Of 47 5:06
04. Selektionsfunktion 4:57
05. B.I.I.D. 4:38
06. Nobody Hurts Me Like I Do 6:32
07. Too Tired To Consume 5:11
08. Architecture 4:15
09. Between My Headphones 4:56
10. Heteronomy 5:01
11. Monster Train 5:36
12. Geteert Und Gefedert 4:58
13. Human Product 5:53
Код:
Exact Audio Copy V0.99 prebeta 5 from 4. May 2009
Отчёт EAC об извлечении, выполненном 30. октября 2010, 15:59
De:Ad:Cibel / Klondike
Дисковод: TSSTcorpCDDVDW TS-L632H   Adapter: 0  ID: 0
Режим чтения                 : Достоверность
Использование точного потока : Да
Отключение кэша аудио        : Да
Использование указателей C2  : Нет
Коррекция смещения при чтении                     : 6
Способность читать области Lead-in и Lead-out     : Нет
Заполнение пропущенных сэмплов тишиной            : Да
Удаление блоков с тишиной в начале и конце        : Нет
При вычислениях CRC использовались нулевые сэмплы : Да
Интерфейс                                         : Встроенный Win32-интерфейс для Win NT/2000
Выходной формат          : Пользовательский кодировщик
Выбранный битрейт        : 1024 kBit/s
Качество                 : Высокий
Добавление ID3-тэга      : Нет
Утилита сжатия           : C:\Program Files\Exact Audio Copy\FLAC\FLAC.EXE
Дополнительные параметры : -6 -V -T "ARTIST=%a" -T "TITLE=%t" -T "ALBUM=%g" -T "DATE=%y" -T "TRACKNUMBER=%n" -T "GENRE=%m" -T "COMMENT=%e" %s -o %d
TOC извлечённого CD
     Трек |   Старт  | Длительность | Начальный сектор | Конечный сектор
    ---------------------------------------------------------------------
       1  |  0:00.00 |    2:37.37   |           0      |      11811
       2  |  2:37.37 |    4:29.36   |       11812      |      32022
       3  |  7:06.73 |    5:07.65   |       32023      |      55112
       4  | 12:14.63 |    4:59.57   |       55113      |      77594
       5  | 17:14.45 |    4:40.18   |       77595      |      98612
       6  | 21:54.63 |    6:34.58   |       98613      |     128220
       7  | 28:29.46 |    5:13.47   |      128221      |     151742
       8  | 33:43.18 |    4:17.55   |      151743      |     171072
       9  | 38:00.73 |    4:58.27   |      171073      |     193449
      10  | 42:59.25 |    5:03.47   |      193450      |     216221
      11  | 48:02.72 |    5:38.09   |      216222      |     241580
      12  | 53:41.06 |    5:00.29   |      241581      |     264109
      13  | 58:41.35 |    5:53.08   |      264110      |     290592
Характеристики диапазона извлечения и сообщения об ошибках
Выбранный диапазон
     Имя файла C:\Users\Алексей\Desktop\iPOD\De Ad Cibel - Klondike.wav
     Пиковый уровень 99.5 %
     Качество диапазона 100.0 %
     CRC теста B52BED23
     CRC копии B52BED23
     Копирование... OK
Ошибок не произошло
AccurateRip: сводка
Трек  1  нет в базе данных
Трек  2  нет в базе данных
Трек  3  нет в базе данных
Трек  4  нет в базе данных
Трек  5  нет в базе данных
Трек  6  нет в базе данных
Трек  7  нет в базе данных
Трек  8  нет в базе данных
Трек  9  нет в базе данных
Трек 10  нет в базе данных
Трек 11  нет в базе данных
Трек 12  нет в базе данных
Трек 13  нет в базе данных
Ни одного трека нет в базе AccurateRip
Конец отчёта
Код:
REM GENRE Industrial
REM DATE 2010
REM DISCID A20F220D
REM COMMENT "ExactAudioCopy v0.99pb5"
PERFORMER "De:Ad:Cibel"
TITLE "Klondike"
FILE "De Ad Cibel - Klondike.flac" WAVE
  TRACK 01 AUDIO
    TITLE "Hotel Lux (Intro)"
    PERFORMER "De:Ad:Cibel"
    INDEX 01 00:00:00
  TRACK 02 AUDIO
    TITLE "Jerusalem Syndrom"
    PERFORMER "De:Ad:Cibel"
    INDEX 00 02:35:37
    INDEX 01 02:37:37
  TRACK 03 AUDIO
    TITLE "One of 47"
    PERFORMER "De:Ad:Cibel"
    INDEX 00 07:04:73
    INDEX 01 07:06:73
  TRACK 04 AUDIO
    TITLE "Selektionsfunktion"
    PERFORMER "De:Ad:Cibel"
    INDEX 00 12:12:63
    INDEX 01 12:14:63
  TRACK 05 AUDIO
    TITLE "B.I.I.D."
    PERFORMER "De:Ad:Cibel"
    INDEX 00 17:12:45
    INDEX 01 17:14:45
  TRACK 06 AUDIO
    TITLE "Nobody hurts me like I do"
    PERFORMER "De:Ad:Cibel"
    INDEX 00 21:52:63
    INDEX 01 21:54:63
  TRACK 07 AUDIO
    TITLE "Too tired to consume"
    PERFORMER "De:Ad:Cibel"
    INDEX 00 28:27:46
    INDEX 01 28:29:46
  TRACK 08 AUDIO
    TITLE "Architecture"
    PERFORMER "De:Ad:Cibel"
    INDEX 00 33:41:18
    INDEX 01 33:43:18
  TRACK 09 AUDIO
    TITLE "Between my headphones"
    PERFORMER "De:Ad:Cibel"
    INDEX 00 37:58:73
    INDEX 01 38:00:73
  TRACK 10 AUDIO
    TITLE "Heteronomy"
    PERFORMER "De:Ad:Cibel"
    INDEX 00 42:57:25
    INDEX 01 42:59:25
  TRACK 11 AUDIO
    TITLE "Monster Train"
    PERFORMER "De:Ad:Cibel"
    INDEX 00 48:00:72
    INDEX 01 48:02:72
  TRACK 12 AUDIO
    TITLE "Geteert und gefedert"
    PERFORMER "De:Ad:Cibel"
    INDEX 00 53:39:06
    INDEX 01 53:41:06
  TRACK 13 AUDIO
    TITLE "Human product"
    PERFORMER "De:Ad:Cibel"
    INDEX 00 58:39:35
    INDEX 01 58:41:35
Код:
[url=https://fastpic.ru/view/11/2010/1105/3e39be8ec41976cbfa8bcfde9940c724.jpg.html][img]http://i11.fastpic.ru/thumb/2010/1105/24/3e39be8ec41976cbfa8bcfde9940c724.jpeg[/img][/url]
ОГРОМНАЯ БЛАГОДАРНОСТЬ НАШЕМУ КОЛЛЕГЕ KERGARN`у ЗА СКАНЫ!!!
Правила, инструкции, FAQ!!!
Торрент  Добавлен [26 июн 2020, 20:58] Скачать торрент Магнет ссылка
Скачать торрент
[ Размер 11.28 КБ / Просмотров 6 ]

Статус
Проверен 
 
Размер  517.88 МБ
Приватный: Нет (DHT включён)
.torrent скачан  0
 


     Отправить личное сообщение
   
Страница 1 из 1
Показать сообщения за:  Поле сортировки  
Начать новую тему Ответить на тему


Сейчас этот форум просматривают: нет зарегистрированных пользователей и гости: 0


Вы не можете начинать темы
Вы не можете отвечать на сообщения
Вы не можете редактировать свои сообщения
Вы не можете удалять свои сообщения
Вы не можете добавлять вложения

Перейти:  
cron