Начать новую тему Ответить на тему
Статистика раздачи
Размер: 408.91 МБ | Добавлен: 26 июн 2020, 17:09 | Скачали: 0
Сидеров: 0  [0 байт/сек]    Личеров: 0  [0 байт/сек]
Пред. тема | След. тема 

Автор
Сообщение

СообщениеДобавлено: 26 июн 2020, 17:09 

Ответить с цитатой 

Cenobita - Metamorfosis
Жанр: EBM , Electro
Год выпуска диска: 2002
Страна: Mexico
Аудио кодек: FLAC
Тип рипа: tracks
Битрейт аудио: lossless
Продолжительность: 00:64:41

Трэклист
:
1 On Line Trinity (6:36)
2 Estrellas (5:14)
3 Slaves (7:57)
4 Indiferencia (7:03)
5 Imperios (6:27)
6 Human Racing (5:12)
7 Destino Final (Global Mix) (6:47)
8 Aliens (7:36)
9 Niño Atómico (Uranio Mix) (6:57)
10-32 Error (4:00)
33 Untitled (3:01)
Код:
Exact Audio Copy V0.99 prebeta 4 from 23. January 2008
Отчёт EAC об извлечении, выполненном 1. апреля 2009, 19:00
Cenobita / Metamorfosis
Дисковод: PLEXTOR DVDR   PX-820SA   Adapter: 4  ID: 2
Режим чтения                 : Достоверность
Использование точного потока : Да
Отключение кэша аудио        : Да
Использование указателей C2  : Нет
Коррекция смещения при чтении                     : 48
Способность читать области Lead-in и Lead-out     : Нет
Заполнение пропущенных сэмплов тишиной            : Да
Удаление блоков с тишиной в начале и конце        : Нет
При вычислениях CRC использовались нулевые сэмплы : Да
Интерфейс                                         : Встроенный Win32-интерфейс для Win NT/2000
Выходной формат          : Пользовательский кодировщик
Выбранный битрейт        : 1024 kBit/s
Качество                 : Высокий
Добавление ID3-тэга      : Нет
Утилита сжатия           : C:\Program Files\Exact Audio Copy\FLAC\FLAC.EXE
Дополнительные параметры : -8 -V -T "ARTIST=%a" -T "TITLE=%t" -T "ALBUM=%g" -T "DATE=%y" -T "TRACKNUMBER=%n" -T "GENRE=%m" -T "COMMENT=%e" %s -o %d
TOC извлечённого CD
     Трек |   Старт  | Длительность | Начальный сектор | Конечный сектор
    ---------------------------------------------------------------------
       1  |  0:00.00 |    6:36.50   |           0      |      29749
       2  |  6:36.50 |    5:13.66   |       29750      |      53290
       3  | 11:50.41 |    7:57.22   |       53291      |      89087
       4  | 19:47.63 |    7:02.64   |       89088      |     120801
       5  | 26:50.52 |    6:26.26   |      120802      |     149777
       6  | 33:17.03 |    5:12.59   |      149778      |     173236
       7  | 38:29.62 |    6:46.42   |      173237      |     203728
       8  | 45:16.29 |    7:36.36   |      203729      |     237964
       9  | 52:52.65 |    6:56.26   |      237965      |     269190
      10  | 59:49.16 |    0:04.00   |      269191      |     269490
      11  | 59:53.16 |    0:04.00   |      269491      |     269790
      12  | 59:57.16 |    0:04.00   |      269791      |     270090
      13  | 60:01.16 |    0:04.00   |      270091      |     270390
      14  | 60:05.16 |    0:04.00   |      270391      |     270690
      15  | 60:09.16 |    0:04.00   |      270691      |     270990
      16  | 60:13.16 |    0:04.00   |      270991      |     271290
      17  | 60:17.16 |    0:04.00   |      271291      |     271590
      18  | 60:21.16 |    0:04.00   |      271591      |     271890
      19  | 60:25.16 |    0:04.00   |      271891      |     272190
      20  | 60:29.16 |    0:04.00   |      272191      |     272490
      21  | 60:33.16 |    0:04.00   |      272491      |     272790
      22  | 60:37.16 |    0:04.00   |      272791      |     273090
      23  | 60:41.16 |    0:04.00   |      273091      |     273390
      24  | 60:45.16 |    0:04.00   |      273391      |     273690
      25  | 60:49.16 |    0:04.00   |      273691      |     273990
      26  | 60:53.16 |    0:04.00   |      273991      |     274290
      27  | 60:57.16 |    0:04.00   |      274291      |     274590
      28  | 61:01.16 |    0:04.00   |      274591      |     274890
      29  | 61:05.16 |    0:04.00   |      274891      |     275190
      30  | 61:09.16 |    0:04.00   |      275191      |     275490
      31  | 61:13.16 |    0:11.52   |      275491      |     276367
      32  | 61:24.68 |    0:12.06   |      276368      |     277273
      33  | 61:36.74 |    3:02.36   |      277274      |     290959
Характеристики диапазона извлечения и сообщения об ошибках
Выбранный диапазон
     Имя файла C:\Cenobita - Metamorfosis.wav
     Пиковый уровень 100.0 %
     Качество диапазона 100.0 %
     CRC теста 6A2AA2F4
     CRC копии 6A2AA2F4
     Копирование... OK
Ошибок не произошло
Конец отчёта
Код:
AUDIOCHECKER v2.0 beta (build 457) - by Dester - opdester@freemail.hu
~~~~~~~~~~~~~~~~~~~~~~~~~~~~~~~~~~
-=== НЕ РЕДАКТИРУЙТЕ ЭТОТ ФАЙЛ! ===-
Путь: ...\Cenobita - Metamorfosis
1 -=- Cenobita - Metamorfosis.flac -=- CDDA (100%)
243305124

ТОРРЕНТ ПЕРЕЗАЛИТ ПО ПРОСЬБАМ
Правила, инструкции, FAQ!!!
Торрент  Добавлен [26 июн 2020, 17:09] Скачать торрент Магнет ссылка
Скачать торрент
[ Размер 16.8 КБ / Просмотров 5 ]

Статус
Проверен 
 
Размер  408.91 МБ
Приватный: Нет (DHT включён)
.torrent скачан  0
 


     Отправить личное сообщение
   
Страница 1 из 1
Показать сообщения за:  Поле сортировки  
Начать новую тему Ответить на тему


Сейчас этот форум просматривают: нет зарегистрированных пользователей и гости: 0


Вы не можете начинать темы
Вы не можете отвечать на сообщения
Вы не можете редактировать свои сообщения
Вы не можете удалять свои сообщения
Вы не можете добавлять вложения

Перейти:  
cron