Начать новую тему Ответить на тему
Статистика раздачи
Размер: 509.49 МБ | Добавлен: 26 июн 2020, 20:38 | Скачали: 0
Сидеров: 0  [0 байт/сек]    Личеров: 0  [0 байт/сек]
Пред. тема | След. тема 

Автор
Сообщение

СообщениеДобавлено: 26 июн 2020, 20:38 

Ответить с цитатой 

Blame / Water
Жанр: EBM, Electro
Страна-производитель диска: Germany
Год издания диска: 2008
Издатель (лейбл): Klangdynamik Records
Номер по каталогу: KD.06
Формат: CD, Album
Аудиокодек: FLAC (*.flac)
Тип рипа: image+.cue
Битрейт аудио: lossless
Продолжительность: 1:00:23.70
Источник (релизер): Физический носитель (Собственный рип с оригинального CD).
Наличие сканов в содержимом раздачи: да
Треклист:
01. Ragnarok - The Final Winter [4:47]
02. Legions - Across These Oceans [5:33]
03. Waterside [7:38]
04. Modern Angels Like Us [5:16]
05. I Hate Your Evolution [3:21]
06. Unless (Violent) [4:48]
07. Discreetly Exultant [3:52]
08. 1000 Pieces Of Your Smile [4:21]
09. Evolution [4:49]
10. Blame Praetorian [6:04]
11. Waterside (Hypogeum) [5:39]
12. Sentinels Asleep [4:14]
Код:
Exact Audio Copy V1.0 beta 3 from 29. August 2011
EAC extraction logfile from 30. January 2012, 20:50
Blame / Water
Used drive  : PLEXTOR BDDVDR PX-B320SA   Adapter: 0  ID: 2
Read mode               : Secure
Utilize accurate stream : Yes
Defeat audio cache      : Yes
Make use of C2 pointers : No
Read offset correction                      : 6
Overread into Lead-In and Lead-Out          : No
Fill up missing offset samples with silence : Yes
Delete leading and trailing silent blocks   : No
Null samples used in CRC calculations       : Yes
Used interface                              : Native Win32 interface for Win NT & 2000
Used output format              : User Defined Encoder
Selected bitrate                : 128 kBit/s
Quality                         : High
Add ID3 tag                     : No
Command line compressor         : C:\Program Files (x86)\FLAC\flac.exe
Additional command line options : -V -8 -T "Date=%year%" -T "Genre=%genre%" %source%
TOC of the extracted CD
     Track |   Start  |  Length  | Start sector | End sector
    ---------------------------------------------------------
        1  |  0:00.00 |  4:47.18 |         0    |    21542
        2  |  4:47.18 |  5:32.64 |     21543    |    46506
        3  | 10:20.07 |  7:38.12 |     46507    |    80868
        4  | 17:58.19 |  5:16.10 |     80869    |   104578
        5  | 23:14.29 |  3:21.09 |    104579    |   119662
        6  | 26:35.38 |  4:48.37 |    119663    |   141299
        7  | 31:24.00 |  3:52.31 |    141300    |   158730
        8  | 35:16.31 |  4:21.00 |    158731    |   178305
        9  | 39:37.31 |  4:49.04 |    178306    |   199984
       10  | 44:26.35 |  6:03.53 |    199985    |   227262
       11  | 50:30.13 |  5:39.20 |    227263    |   252707
       12  | 56:09.33 |  4:14.37 |    252708    |   271794
Range status and errors
Selected range
     Filename D:\Blame - Water (2008)\Blame - Water.wav
     Peak level 100.0 %
     Extraction speed 8.1 X
     Range quality 100.0 %
     Test CRC 50D4C988
     Copy CRC 50D4C988
     Copy OK
No errors occurred
AccurateRip summary
Track  1  not present in database
Track  2  not present in database
Track  3  not present in database
Track  4  not present in database
Track  5  not present in database
Track  6  not present in database
Track  7  not present in database
Track  8  not present in database
Track  9  not present in database
Track 10  not present in database
Track 11  not present in database
Track 12  not present in database
None of the tracks are present in the AccurateRip database
End of status report
==== Log checksum 0E9C3960C95C07FDCAA9D14D07B90C1FCDFC7E17A3DE51E2ABF89F8FBA451778 ====
Правила, инструкции, FAQ!!!
Торрент  Добавлен [26 июн 2020, 20:38] Скачать торрент Магнет ссылка
Скачать торрент
[ Размер 20.72 КБ / Просмотров 5 ]

Статус
Проверен 
 
Размер  509.49 МБ
Приватный: Нет (DHT включён)
.torrent скачан  0
 


     Отправить личное сообщение
   
Страница 1 из 1
Показать сообщения за:  Поле сортировки  
Начать новую тему Ответить на тему


Сейчас этот форум просматривают: нет зарегистрированных пользователей и гости: 0


Вы не можете начинать темы
Вы не можете отвечать на сообщения
Вы не можете редактировать свои сообщения
Вы не можете удалять свои сообщения
Вы не можете добавлять вложения

Перейти:  
cron