Начать новую тему Ответить на тему
Статистика раздачи
Размер: 438.71 МБ | Добавлен: 26 июн 2020, 17:27 | Скачали: 0
Сидеров: 1  [0 байт/сек]    Личеров: 0  [0 байт/сек]
Пред. тема | След. тема 

Автор
Сообщение

СообщениеДобавлено: 26 июн 2020, 17:27 

Ответить с цитатой 

BAK XIII / Ibi Deficit Orbis
Жанр: EBM, Electro
Страна-производитель диска: Switzerland
Год издания диска: 2010
Издатель (лейбл): Urgence Disk Records
Номер по каталогу: KAB091
Аудиокодек: FLAC (*.flac)
Тип рипа: image+.cue
Битрейт аудио: lossless
Продолжительность: 58:20
Источник (релизер): оригинальный диск
Наличие сканов в содержимом раздачи: да
Треклист:
01. We Are Alive 3:41
02. Nothing To Fear 3:22
03. Make My Day 4:35
04. Destroy Fashion 4:31
05. Gay Beat 3:15
06. Twilight Prayer 5:23
07. The Vanguard 2:54
08. Natural Process 3:54
09. Saturday Night 4:08
10. In The Name Of Industry 5:13
11. Yes We Can't 4:01
12. Where Is My Joy? 3:45
13. You Kill Me From The Inside 4:36
14. Untitled 0:43
15. Untitled 4:20
Код:
Exact Audio Copy V1.0 beta 1 from 15. November 2010
EAC extraction logfile from 12. October 2011, 12:25
Bak XIII / Ibi Deficit Orbis
Used drive  : ASUS    DRW-1814BLT   Adapter: 3  ID: 0
Read mode               : Secure
Utilize accurate stream : Yes
Defeat audio cache      : Yes
Make use of C2 pointers : No
Read offset correction                      : 6
Overread into Lead-In and Lead-Out          : No
Fill up missing offset samples with silence : Yes
Delete leading and trailing silent blocks   : No
Null samples used in CRC calculations       : Yes
Used interface                              : Native Win32 interface for Win NT & 2000
Used output format              : User Defined Encoder
Selected bitrate                : 1024 kBit/s
Quality                         : High
Add ID3 tag                     : No
Command line compressor         : C:\Program Files\Exact Audio Copy\FLAC\FLAC.EXE
Additional command line options : -T "DATE=%y" -T "GENRE=%m" -8 -V %s
TOC of the extracted CD
     Track |   Start  |  Length  | Start sector | End sector
    ---------------------------------------------------------
        1  |  0:00.00 |  3:40.41 |         0    |    16540
        2  |  3:40.41 |  3:21.73 |     16541    |    31688
        3  |  7:02.39 |  4:35.25 |     31689    |    52338
        4  | 11:37.64 |  4:31.00 |     52339    |    72663
        5  | 16:08.64 |  3:15.11 |     72664    |    87299
        6  | 19:24.00 |  5:23.22 |     87300    |   111546
        7  | 24:47.22 |  2:53.62 |    111547    |   124583
        8  | 27:41.09 |  3:53.58 |    124584    |   142116
        9  | 31:34.67 |  4:08.09 |    142117    |   160725
       10  | 35:43.01 |  5:13.10 |    160726    |   184210
       11  | 40:56.11 |  4:00.60 |    184211    |   202270
       12  | 44:56.71 |  3:44.64 |    202271    |   219134
       13  | 48:41.60 |  4:35.67 |    219135    |   239826
       14  | 53:17.52 |  0:43.21 |    239827    |   243072
       15  | 54:00.73 |  4:19.71 |    243073    |   262568
Range status and errors
Selected range
     Filename D:\Bak XIII - Ibi Deficit Orbis.wav
     Peak level 99.0 %
     Extraction speed 0.6 X
     Range quality 100.0 %
     Test CRC 401D0F23
     Copy CRC 401D0F23
     Copy OK
No errors occurred
AccurateRip summary
Track  1  not present in database
Track  2  not present in database
Track  3  not present in database
Track  4  not present in database
Track  5  not present in database
Track  6  not present in database
Track  7  not present in database
Track  8  not present in database
Track  9  not present in database
Track 10  not present in database
Track 11  not present in database
Track 12  not present in database
Track 13  not present in database
Track 14  not present in database
Track 15  not present in database
None of the tracks are present in the AccurateRip database
End of status report
Доп. информация:
малоизвестная, но очень достойная банда из Швейцарии. в двух словах охарактеризовать представленный материал достаточно сложно, а длинно и нудно описывать тоже не хочется. да и не к чему это. альбом шикарный, рекомендую всем, у кого порядок с английским языком и чувством юмора.
Правила, инструкции, FAQ!!!
Торрент  Добавлен [26 июн 2020, 17:27] Скачать торрент Магнет ссылка
Скачать торрент
[ Размер 18.04 КБ / Просмотров 7 ]

Статус
Проверен 
 
Размер  438.71 МБ
Приватный: Нет (DHT включён)
.torrent скачан  0
 


     Отправить личное сообщение
   
Страница 1 из 1
Показать сообщения за:  Поле сортировки  
Начать новую тему Ответить на тему


Сейчас этот форум просматривают: нет зарегистрированных пользователей и гости: 0


Вы не можете начинать темы
Вы не можете отвечать на сообщения
Вы не можете редактировать свои сообщения
Вы не можете удалять свои сообщения
Вы не можете добавлять вложения

Перейти:  
cron