Начать новую тему Ответить на тему
Статистика раздачи
Размер: 317.23 МБ | Добавлен: 26 июн 2020, 17:39 | Скачали: 0
Сидеров: 0  [0 байт/сек]    Личеров: 0  [0 байт/сек]
Пред. тема | След. тема 

Автор
Сообщение

СообщениеДобавлено: 26 июн 2020, 17:39 

Ответить с цитатой 

Apoptygma Berzerk - Soli Deo Gloria
Жанр: EBM,Electro
Год выпуска диска: 1993
Производитель диска: Norway
Аудио кодек: FLAC
Тип рипа: image+.cue
Битрейт аудио: lossless
Продолжительность: 47min 16sek
Трэклист:
1. Like Blood From The Beloved (part 1)
2. Bitch
3. Burnin' Heretic (Album Version)
4. Stich
5. Walk With Me
6. Backdraft
7. Arp (808 Edit)
8. Spiritual Reality
9. Skyscraping (Schizophreniac)
10. All Tomorrows Parties
11. The Sentinel
12. Ashes To Ashes '93
13. Like Blood From The Beloved (part 2)
Доп. информация: http://www.discogs.com/Apoptygma-Berzerk-Soli-Deo-Gloria/release/351085
Диск моего Друга Инго! Сканы внутри.
Exact Audio Copy V0.99 prebeta 5 from 4. May 2009
Отчёт EAC об извлечении, выполненном 18. декабря 2009, 21:42
Apoptygma Berzerk / Soli Deo Gloria
Дисковод: TSSTcorpCD/DVDW SH-S182M Adapter: 0 ID: 0
Режим чтения : Достоверность
Использование точного потока : Да
Отключение кэша аудио : Да
Использование указателей C2 : Нет
Коррекция смещения при чтении : 6
Способность читать области Lead-in и Lead-out : Нет
Заполнение пропущенных сэмплов тишиной : Да
Удаление блоков с тишиной в начале и конце : Нет
При вычислениях CRC использовались нулевые сэмплы : Да
Интерфейс : Встроенный Win32-интерфейс для Win NT/2000
Выходной формат : Пользовательский кодировщик
Выбранный битрейт : 768 kBit/s
Качество : Высокий
Добавление ID3-тэга : Нет
Утилита сжатия : C:\Program Files\Exact Audio Copy\FLAC\FLAC.EXE
Дополнительные параметры : -6 -V -T "ARTIST=%a" -T "TITLE=%t" -T "ALBUM=%g" -T "DATE=%y" -T "TRACKNUMBER=%n" -T "GENRE=%m" -T "COMMENT=%e" %s -o %d
TOC извлечённого CD
Трек | Старт | Длительность | Начальный сектор | Конечный сектор
---------------------------------------------------------------------
1 | 0:00.00 | 1:31.30 | 0 | 6854
2 | 1:31.30 | 4:25.45 | 6855 | 26774
3 | 5:57.00 | 5:33.17 | 26775 | 51766
4 | 11:30.17 | 3:06.05 | 51767 | 65721
5 | 14:36.22 | 1:40.10 | 65722 | 73231
6 | 16:16.32 | 4:23.05 | 73232 | 92961
7 | 20:39.37 | 2:10.08 | 92962 | 102719
8 | 22:49.45 | 4:38.10 | 102720 | 123579
9 | 27:27.55 | 7:13.35 | 123580 | 156089
10 | 34:41.15 | 5:05.60 | 156090 | 179024
11 | 39:47.00 | 1:12.57 | 179025 | 184481
12 | 40:59.57 | 4:20.35 | 184482 | 204016
13 | 45:20.17 | 1:53.60 | 204017 | 212551
Характеристики диапазона извлечения и сообщения об ошибках
Выбранный диапазон
Имя файла C:\Documents and Settings\User\Мои документы\Code\1993 Apoptygma Berzerk Soli Deo Gloria\Apoptygma Berzerk - Soli Deo Gloria.wav
Пиковый уровень 97.7 %
Качество диапазона 100.0 %
CRC теста F3DF0C5D
CRC копии F3DF0C5D
Копирование... OK
Ошибок не произошло
AccurateRip: сводка
Трек 1 точное извлечение (доверие 10) [C9AC4A44]
Трек 2 точное извлечение (доверие 10) [CB52130D]
Трек 3 точность не определена (достоверность 9) [7E8C9E67], AccurateRip вернул [4E19E3A9]
Трек 4 точное извлечение (доверие 10) [1AA85CB0]
Трек 5 точное извлечение (доверие 11) [8827ACCA]
Трек 6 точность не определена (достоверность 11) [944D87EC], AccurateRip вернул [571D11B4]
Трек 7 точное извлечение (доверие 10) [2CDA6B08]
Трек 8 точное извлечение (доверие 9) [11519139]
Трек 9 точность не определена (достоверность 8) [275FDDB6], AccurateRip вернул [085EFA81]
Трек 10 точность не определена (достоверность 8) [088C8510], AccurateRip вернул [01E70838]
Трек 11 точное извлечение (доверие 10) [944DC99A]
Трек 12 точность не определена (достоверность 9) [545885A3], AccurateRip вернул [FD2C5879]
Трек 13 точность не определена (достоверность 9) [F98EBCC3], AccurateRip вернул [C26F3213]
7 трек(и) скопированы точно
6 трек(и) не удалось проверить на точность
Некоторые треки не прошли проверку на точность
Конец отчёта
Правила, инструкции, FAQ!!!
Торрент  Добавлен [26 июн 2020, 17:39] Скачать торрент Магнет ссылка
Скачать торрент
[ Размер 13.29 КБ / Просмотров 12 ]

Статус
Проверен 
 
Размер  317.23 МБ
Приватный: Нет (DHT включён)
.torrent скачан  0
 


     Отправить личное сообщение
   
Страница 1 из 1
Показать сообщения за:  Поле сортировки  
Начать новую тему Ответить на тему


Сейчас этот форум просматривают: нет зарегистрированных пользователей и гости: 0


Вы не можете начинать темы
Вы не можете отвечать на сообщения
Вы не можете редактировать свои сообщения
Вы не можете удалять свои сообщения
Вы не можете добавлять вложения

Перейти:  
cron