Начать новую тему Ответить на тему
Статистика раздачи
Размер: 307.79 МБ | Добавлен: 26 июн 2020, 17:09 | Скачали: 0
Сидеров: 0  [0 байт/сек]    Личеров: 0  [0 байт/сек]
Пред. тема | След. тема 

Автор
Сообщение

СообщениеДобавлено: 26 июн 2020, 17:09 

Ответить с цитатой 

Angel Theory / Transmission EP
Жанр: EBM, Electro
Страна-производитель диска: Australia
Год издания диска: 2004
Издатель (лейбл): Ground Under Productions
Номер по каталогу: GUP CD 008
Формат: CD, EP
Аудиокодек: FLAC (*.flac)
Тип рипа: image+.cue
Битрейт аудио: lossless
Продолжительность: 0:41:18.11
Источник (релизер): Физический носитель (Собственный рип с оригинального CD).
Наличие сканов в содержимом раздачи: да
Треклист:
01. Transmission (Single) [3:57]
02. Transmission (Seele) [5:44]
03. Fashion [4:37]
04. Transmission (Urge) [5:41]
05. In Dreams [5:06]
06. Paranoia [2:58]
07. Transmission (Singularity) [5:37]
08. Transmission (Ignited) [7:38]
Код:
Exact Audio Copy V1.0 beta 3 from 29. August 2011
EAC extraction logfile from 23. February 2012, 18:27
Angel Theory / Transmission EP
Used drive  : PLEXTOR BDDVDR PX-B320SA   Adapter: 0  ID: 2
Read mode               : Secure
Utilize accurate stream : Yes
Defeat audio cache      : Yes
Make use of C2 pointers : No
Read offset correction                      : 6
Overread into Lead-In and Lead-Out          : No
Fill up missing offset samples with silence : Yes
Delete leading and trailing silent blocks   : No
Null samples used in CRC calculations       : Yes
Used interface                              : Native Win32 interface for Win NT & 2000
Used output format              : User Defined Encoder
Selected bitrate                : 128 kBit/s
Quality                         : High
Add ID3 tag                     : No
Command line compressor         : C:\Program Files (x86)\FLAC\flac.exe
Additional command line options : -V -8 -T "Date=%year%" -T "Genre=%genre%" %source%
TOC of the extracted CD
     Track |   Start  |  Length  | Start sector | End sector
    ---------------------------------------------------------
        1  |  0:00.00 |  3:57.00 |         0    |    17774
        2  |  3:57.00 |  5:44.19 |     17775    |    43593
        3  |  9:41.19 |  4:37.21 |     43594    |    64389
        4  | 14:18.40 |  5:41.03 |     64390    |    89967
        5  | 19:59.43 |  5:06.02 |     89968    |   112919
        6  | 25:05.45 |  2:57.48 |    112920    |   126242
        7  | 28:03.18 |  5:36.71 |    126243    |   151513
        8  | 33:40.14 |  7:37.72 |    151514    |   185860
Range status and errors
Selected range
     Filename D:\Angel Theory - Transmission EP (2004)\Angel Theory - Transmission EP.wav
     Peak level 100.0 %
     Extraction speed 6.8 X
     Range quality 100.0 %
     Test CRC FC185184
     Copy CRC FC185184
     Copy OK
No errors occurred
AccurateRip summary
Track  1  accurately ripped (confidence 2)  [01D650D1]  (AR v1)
Track  2  accurately ripped (confidence 2)  [5429816B]  (AR v1)
Track  3  accurately ripped (confidence 2)  [841CC060]  (AR v1)
Track  4  accurately ripped (confidence 2)  [1F305F13]  (AR v1)
Track  5  accurately ripped (confidence 2)  [456DFB80]  (AR v1)
Track  6  accurately ripped (confidence 2)  [7D3C583A]  (AR v1)
Track  7  accurately ripped (confidence 2)  [D9197089]  (AR v1)
Track  8  accurately ripped (confidence 2)  [F8FC525F]  (AR v1)
All tracks accurately ripped
End of status report
==== Log checksum AB39EA7FAE94C7C8493EE5CC8F623B61CA4B0AD086950A922DB09D6975D5FA3E ====
Правила, инструкции, FAQ!!!
Торрент  Добавлен [26 июн 2020, 17:09] Скачать торрент Магнет ссылка
Скачать торрент
[ Размер 12.96 КБ / Просмотров 4 ]

Статус
Проверен 
 
Размер  307.79 МБ
Приватный: Нет (DHT включён)
.torrent скачан  0
 


     Отправить личное сообщение
   
Страница 1 из 1
Показать сообщения за:  Поле сортировки  
Начать новую тему Ответить на тему


Сейчас этот форум просматривают: нет зарегистрированных пользователей и гости: 0


Вы не можете начинать темы
Вы не можете отвечать на сообщения
Вы не можете редактировать свои сообщения
Вы не можете удалять свои сообщения
Вы не можете добавлять вложения

Перейти:  
cron