Начать новую тему Ответить на тему
Статистика раздачи
Размер: 355.26 МБ | Добавлен: 26 июн 2020, 17:09 | Скачали: 0
Сидеров: 0  [0 байт/сек]    Личеров: 0  [0 байт/сек]
Пред. тема | След. тема 

Автор
Сообщение

СообщениеДобавлено: 26 июн 2020, 17:09 

Ответить с цитатой 

Angel Theory / Black And Blue EP
Жанр: EBM, Electro
Страна-производитель диска: Australia
Год издания: 2005
Издатель (лейбл): Ground Under Productions
Номер по каталогу: GUP CD 011
Формат: CD, EP
Аудиокодек: FLAC (*.flac)
Тип рипа: image+.cue
Битрейт аудио: lossless
Продолжительность: 0:48:18.22
Источник (релизер): Физический носитель (Собственный рип с оригинального CD).
Наличие сканов в содержимом раздачи: да
Треклист:
01. Black And Blue [4:27]
02. Black And Blue (Bruises) [4:28]
03. Black And Blue (Conviction) [5:09]
04. Possession (Re-Claimed) [6:32]
05. Theme For Great Cities [5:31]
06. She Echoes [4:14]
07. Black And Blue (Structure) [4:39]
08. Ease The Pain (Placebo) [6:31]
09. Black And Blue (Blind) [6:46]
Код:
Exact Audio Copy V1.0 beta 3 from 29. August 2011
EAC extraction logfile from 9. April 2012, 18:07
Angel Theory / Black And Blue EP
Used drive  : PLEXTOR BDDVDR PX-B320SA   Adapter: 0  ID: 2
Read mode               : Secure
Utilize accurate stream : Yes
Defeat audio cache      : Yes
Make use of C2 pointers : No
Read offset correction                      : 6
Overread into Lead-In and Lead-Out          : No
Fill up missing offset samples with silence : Yes
Delete leading and trailing silent blocks   : No
Null samples used in CRC calculations       : Yes
Used interface                              : Native Win32 interface for Win NT & 2000
Used output format              : User Defined Encoder
Selected bitrate                : 128 kBit/s
Quality                         : High
Add ID3 tag                     : No
Command line compressor         : C:\Program Files (x86)\FLAC\flac.exe
Additional command line options : -V -8 -T "Date=%year%" -T "Genre=%genre%" %source%
TOC of the extracted CD
     Track |   Start  |  Length  | Start sector | End sector
    ---------------------------------------------------------
        1  |  0:00.00 |  4:26.68 |         0    |    20017
        2  |  4:26.68 |  4:27.52 |     20018    |    40094
        3  |  8:54.45 |  5:09.32 |     40095    |    63301
        4  | 14:04.02 |  6:32.36 |     63302    |    92737
        5  | 20:36.38 |  5:31.36 |     92738    |   117598
        6  | 26:07.74 |  4:14.10 |    117599    |   136658
        7  | 30:22.09 |  4:38.50 |    136659    |   157558
        8  | 35:00.59 |  6:31.18 |    157559    |   186901
        9  | 41:32.02 |  6:46.20 |    186902    |   217371
Range status and errors
Selected range
     Filename D:\Angel Theory - Black And Blue EP (2005)\Angel Theory - Black And Blue EP.wav
     Peak level 98.8 %
     Extraction speed 3.4 X
     Range quality 100.0 %
     Test CRC 5EB10A49
     Copy CRC 5EB10A49
     Copy OK
No errors occurred
AccurateRip summary
Track  1  cannot be verified as accurate (confidence 1)  [43730A4D], AccurateRip returned [2847C2FD]  (AR v2)
Track  2  cannot be verified as accurate (confidence 1)  [2B305C72], AccurateRip returned [2972EC6B]  (AR v2)
Track  3  cannot be verified as accurate (confidence 1)  [B45A7673], AccurateRip returned [031F6A9C]  (AR v2)
Track  4  cannot be verified as accurate (confidence 1)  [68828930], AccurateRip returned [9D3662FA]  (AR v2)
Track  5  cannot be verified as accurate (confidence 1)  [B8F6F09F], AccurateRip returned [0E35CF4B]  (AR v2)
Track  6  cannot be verified as accurate (confidence 1)  [25622ED3], AccurateRip returned [8278A006]  (AR v2)
Track  7  cannot be verified as accurate (confidence 1)  [BB380F84], AccurateRip returned [EA138F10]  (AR v2)
Track  8  cannot be verified as accurate (confidence 1)  [7015B25E], AccurateRip returned [32948902]  (AR v2)
Track  9  cannot be verified as accurate (confidence 1)  [A2F3A466], AccurateRip returned [C907B6AC]  (AR v2)
No tracks could be verified as accurate
You may have a different pressing from the one(s) in the database
End of status report
==== Log checksum 4026852F72B047579A3F2A12B247B8295B2B397CF61E30AFF043F4D9AC1D27CC ====
Правила, инструкции, FAQ!!!
Торрент  Добавлен [26 июн 2020, 17:09] Скачать торрент Магнет ссылка
Скачать торрент
[ Размер 14.78 КБ / Просмотров 6 ]

Статус
Проверен 
 
Размер  355.26 МБ
Приватный: Нет (DHT включён)
.torrent скачан  0
 


     Отправить личное сообщение
   
Страница 1 из 1
Показать сообщения за:  Поле сортировки  
Начать новую тему Ответить на тему


Сейчас этот форум просматривают: нет зарегистрированных пользователей и гости: 0


Вы не можете начинать темы
Вы не можете отвечать на сообщения
Вы не можете редактировать свои сообщения
Вы не можете удалять свои сообщения
Вы не можете добавлять вложения

Перейти:  
cron