Начать новую тему Ответить на тему
Статистика раздачи
Размер: 479.67 МБ | Добавлен: 26 июн 2020, 17:44 | Скачали: 0
Сидеров: 0  [0 байт/сек]    Личеров: 0  [0 байт/сек]
Пред. тема | След. тема 

Автор
Сообщение

СообщениеДобавлено: 26 июн 2020, 17:44 

Ответить с цитатой 

Patenbrigade Wolff - Demokratischer Sektor
Жанр: EBM, Electro, Ambient
Год выпуска диска: 2008
Страна: Germany
Аудио кодек: FLAC
Тип рипа: image+.cue
Битрейт аудио: lossless
Продолжительность: 01:15:09
Трэклист:

1 Maurerradio (Extended Version)
2 Sendersuche 1
3 Stalinallee
4 Sendersuche 2
5 Demokratischer Sektor (Blutfuss Club Mix)
6 Schusswechsel
7 Die Rote Fahne Fällt
8 Ostberliner Bauarbeiter (Rohbau Remix By KiEw)
9 Demokratischer Sektor (PvD Club Mix)
10 Turmdrehkran (Extended Version)
11 Maurerradio (Old School Retro Club Mix)
12 Mit Jedem Sender Informationen
13 Turmdrehkran (Remix By Absurd Minds)
14 Turmdrehkran (PvD Club Mix)
15 Ostberliner Bauarbeiter (Club Mix)
16 Gefahrstoffe Feat. Sara Noxx (Hocinoizeflug Club Mix)
17 Krantransport Feat. Sara Noxx
18 Schadenshöhe Unbekannt
19 Karl-Eduard Von Schnitzler
20 Maurerradio (Remix By Leserotique)
Код:
Exact Audio Copy V0.99 prebeta 4 from 23. January 2008
Отчёт EAC об извлечении, выполненном 13. января 2009, 16:14
Patenbrigade Wolff / Demokratischer Sektor
Дисковод: PLEXTOR DVDR   PX-820SA   Adapter: 4  ID: 2
Режим чтения                 : Достоверность
Использование точного потока : Да
Отключение кэша аудио        : Да
Использование указателей C2  : Нет
Коррекция смещения при чтении                     : 48
Способность читать области Lead-in и Lead-out     : Нет
Заполнение пропущенных сэмплов тишиной            : Да
Удаление блоков с тишиной в начале и конце        : Нет
При вычислениях CRC использовались нулевые сэмплы : Да
Интерфейс                                         : Встроенный Win32-интерфейс для Win NT/2000
Выходной формат          : Пользовательский кодировщик
Выбранный битрейт        : 1024 kBit/s
Качество                 : Высокий
Добавление ID3-тэга      : Нет
Утилита сжатия           : C:\Program Files\Exact Audio Copy\FLAC\FLAC.EXE
Дополнительные параметры : -8 -V -T "ARTIST=%a" -T "TITLE=%t" -T "ALBUM=%g" -T "DATE=%y" -T "TRACKNUMBER=%n" -T "GENRE=%m" -T "COMMENT=%e" %s -o %d
TOC извлечённого CD
     Трек |   Старт  | Длительность | Начальный сектор | Конечный сектор
    ---------------------------------------------------------------------
       1  |  0:00.00 |    5:10.69   |           0      |      23318
       2  |  5:10.69 |    0:37.53   |       23319      |      26146
       3  |  5:48.47 |    3:34.26   |       26147      |      42222
       4  |  9:22.73 |    1:27.01   |       42223      |      48748
       5  | 10:49.74 |    3:55.71   |       48749      |      66444
       6  | 14:45.70 |    2:29.66   |       66445      |      77685
       7  | 17:15.61 |    1:19.17   |       77686      |      83627
       8  | 18:35.03 |    4:11.23   |       83628      |     102475
       9  | 22:46.26 |    4:55.71   |      102476      |     124671
      10  | 27:42.22 |    3:31.63   |      124672      |     140559
      11  | 31:14.10 |    3:34.18   |      140560      |     156627
      12  | 34:48.28 |    5:28.50   |      156628      |     181277
      13  | 40:17.03 |    3:24.63   |      181278      |     196640
      14  | 43:41.66 |    5:32.11   |      196641      |     221551
      15  | 49:14.02 |    5:14.58   |      221552      |     245159
      16  | 54:28.60 |    2:53.65   |      245160      |     258199
      17  | 57:22.50 |    5:14.74   |      258200      |     281823
      18  | 62:37.49 |    4:36.42   |      281824      |     302565
      19  | 67:14.16 |    3:42.23   |      302566      |     319238
      20  | 70:56.39 |    4:12.56   |      319239      |     338194
Характеристики диапазона извлечения и сообщения об ошибках
Выбранный диапазон
     Имя файла C:\Patenbrigade Wolff - Demokratischer Sektor.wav
     Пиковый уровень 100.0 %
     Качество диапазона 100.0 %
     CRC теста 4C09EBAC
     CRC копии 4C09EBAC
     Копирование... OK
Ошибок не произошло
Конец отчёта
Код:
AUDIOCHECKER v2.0 beta (build 457) - by Dester - opdester@freemail.hu
~~~~~~~~~~~~~~~~~~~~~~~~~~~~~~~~~~
-=== НЕ РЕДАКТИРУЙТЕ ЭТОТ ФАЙЛ! ===-
Путь: ...\(065) Patenbrigade Wolff - Demokratischer Sektor (2008)
1 -=- Patenbrigade Wolff - Demokratischer Sektor.flac -=- CDDA (100%)
69761636
Правила, инструкции, FAQ!!!
Торрент  Добавлен [26 июн 2020, 17:44] Скачать торрент Магнет ссылка
Скачать торрент
[ Размер 19.92 КБ / Просмотров 12 ]

Статус
Проверен 
 
Размер  479.67 МБ
Приватный: Нет (DHT включён)
.torrent скачан  0
 


     Отправить личное сообщение
   
Страница 1 из 1
Показать сообщения за:  Поле сортировки  
Начать новую тему Ответить на тему


Сейчас этот форум просматривают: нет зарегистрированных пользователей и гости: 0


Вы не можете начинать темы
Вы не можете отвечать на сообщения
Вы не можете редактировать свои сообщения
Вы не можете удалять свои сообщения
Вы не можете добавлять вложения

Перейти:  
cron