Начать новую тему Ответить на тему
Статистика раздачи
Размер: 992.86 МБ | Добавлен: 26 июн 2020, 20:06 | Скачали: 0
Сидеров: 0  [0 байт/сек]    Личеров: 0  [0 байт/сек]
Пред. тема | След. тема 

Автор
Сообщение

СообщениеДобавлено: 26 июн 2020, 20:06 

Ответить с цитатой 

32Crash / Y2112Y [Limited Edition 2 x CD]
Жанр: EBM, Electro
Страна-производитель диска: Belgium
Год издания диска: 2011
Издатель (лейбл): Alfa Matrix
Номер по каталогу: AM2168DCD
Формат: 2 × CD, Album, Limited Edition
Аудиокодек: FLAC (*.flac)
Тип рипа: image+.cue
Битрейт аудио: lossless
Продолжительность: [disk1] 1:11:43.10 / [disk2] 0:59:51.17
Источник (релизер): Физические носители (Собственный рип с оригинальных CD).
Наличие сканов в содержимом раздачи: да
Треклист ( Y2112Y ):
01. 100Y [3:13]
02. Aliens On Earth [3:28]
03. Dawning Sun [3:09]
04. What Happened Here [4:29]
05. The Man Who Came Later [2:53]
06. Into The Hole [4:09]
07. Impressionist Piece For A Free Planet [2:56]
08. Hyperreal [3:27]
09. Kryptonically Yours [4:03]
10. Elegy For Himself [3:22]
11. Human Decomposition [2:37]
12. Not Quite Human [3:19]
13. Perpetuum Mobile [3:40]
14. xn+1=a*xn*(1-xn) [3:19]
15. Lasercutter [1:04]
16. The Attack On ZA4 [4:04]
17. Neighbours [3:26]
18. Melang Ohlm’s Hit And Run [4:24]
19. A Tiny Foil Of Oil [4:15]
20. The Ol-Lesar Mass [6:24]
Треклист ( AD MMCXII ):
01. Impressionist Piece For A Free Planet (The Rubber Incident) [2:30]
02. The Ol-Lesar Mass (War Song) [3:21]
03. 100Y (Ganrif) [3:11]
04. Elegy For Himself (Please Dance On My Grave) [4:22]
05. Dawning Sun (The Sound Of 32C) [3:23]
06. The Man Who Came From Later (Autostrade) [3:00]
07. Human Decomposition (Solved In Acid) [2:51]
08. Into The Hole (At The End Of The Light) [3:35]
09. What Happened Here (3rd Evangelic) [3:38]
10. Aliens On Earth (The Core Isn’t Liquid Anymore) [2:59]
11. A New Order [1:47]
12. Melang Ohlm’s Hit And Run (Classic Killer Theme) [3:44]
13. Not Quite Human (Altered DNA) [5:05]
14. Perpetuum Mobile (Will It Blend) [3:22]
15. Kryptonically Yours (Particles In Orbit) [4:09]
16. xn+1=a*xn*(1-xn) (Tapis Vollante) [2:08]
17. Hyperreal (Really Hyper) [3:26]
18. Neighbours (The Bitch Next Door Has A Gun) [3:21]
Код:
Exact Audio Copy V1.0 beta 3 from 29. August 2011
EAC extraction logfile from 29. December 2011, 21:23
32Crash / Y2112Y
Used drive  : PLEXTOR BDDVDR PX-B320SA   Adapter: 0  ID: 2
Read mode               : Secure
Utilize accurate stream : Yes
Defeat audio cache      : Yes
Make use of C2 pointers : No
Read offset correction                      : 6
Overread into Lead-In and Lead-Out          : No
Fill up missing offset samples with silence : Yes
Delete leading and trailing silent blocks   : No
Null samples used in CRC calculations       : Yes
Used interface                              : Native Win32 interface for Win NT & 2000
Used output format              : User Defined Encoder
Selected bitrate                : 128 kBit/s
Quality                         : High
Add ID3 tag                     : No
Command line compressor         : C:\Program Files\FLAC\flac.exe
Additional command line options : -V -8 -T "Date=%year%" -T "Genre=%genre%" %source%
TOC of the extracted CD
     Track |   Start  |  Length  | Start sector | End sector
    ---------------------------------------------------------
        1  |  0:00.00 |  3:12.47 |         0    |    14446
        2  |  3:12.47 |  3:28.13 |     14447    |    30059
        3  |  6:40.60 |  3:09.11 |     30060    |    44245
        4  |  9:49.71 |  4:29.35 |     44246    |    64455
        5  | 14:19.31 |  2:53.07 |     64456    |    77437
        6  | 17:12.38 |  4:09.37 |     77438    |    96149
        7  | 21:22.00 |  2:56.03 |     96150    |   109352
        8  | 24:18.03 |  3:26.50 |    109353    |   124852
        9  | 27:44.53 |  4:03.18 |    124853    |   143095
       10  | 31:47.71 |  3:21.47 |    143096    |   158217
       11  | 35:09.43 |  2:36.39 |    158218    |   169956
       12  | 37:46.07 |  3:19.32 |    169957    |   184913
       13  | 41:05.39 |  3:40.31 |    184914    |   201444
       14  | 44:45.70 |  3:18.43 |    201445    |   216337
       15  | 48:04.38 |  1:04.33 |    216338    |   221170
       16  | 49:08.71 |  4:04.10 |    221171    |   239480
       17  | 53:13.06 |  3:26.28 |    239481    |   254958
       18  | 56:39.34 |  4:24.14 |    254959    |   274772
       19  | 61:03.48 |  4:15.05 |    274773    |   293902
       20  | 65:18.53 |  6:24.32 |    293903    |   322734
Range status and errors
Selected range
     Filename D:\32Crash - Y2112Y [Limited Edition](2011)\(Cd1) Y2112Y\32Crash - Y2112Y.wav
     Peak level 99.7 %
     Extraction speed 8.1 X
     Range quality 100.0 %
     Test CRC 5D38E225
     Copy CRC 5D38E225
     Copy OK
No errors occurred
AccurateRip summary
Track  1  not present in database
Track  2  not present in database
Track  3  not present in database
Track  4  not present in database
Track  5  not present in database
Track  6  not present in database
Track  7  not present in database
Track  8  not present in database
Track  9  not present in database
Track 10  not present in database
Track 11  not present in database
Track 12  not present in database
Track 13  not present in database
Track 14  not present in database
Track 15  not present in database
Track 16  not present in database
Track 17  not present in database
Track 18  not present in database
Track 19  not present in database
Track 20  not present in database
None of the tracks are present in the AccurateRip database
End of status report
==== Log checksum 4074F3DE537622DCC80D7F6EB50B08AA0861CC4A9B9E6AC8F7766E8DA6CA36E9 ====
Код:
Exact Audio Copy V1.0 beta 3 from 29. August 2011
EAC extraction logfile from 29. December 2011, 22:12
32Crash / AD MMCXII
Used drive  : PLEXTOR BDDVDR PX-B320SA   Adapter: 0  ID: 2
Read mode               : Secure
Utilize accurate stream : Yes
Defeat audio cache      : Yes
Make use of C2 pointers : No
Read offset correction                      : 6
Overread into Lead-In and Lead-Out          : No
Fill up missing offset samples with silence : Yes
Delete leading and trailing silent blocks   : No
Null samples used in CRC calculations       : Yes
Used interface                              : Native Win32 interface for Win NT & 2000
Used output format              : User Defined Encoder
Selected bitrate                : 128 kBit/s
Quality                         : High
Add ID3 tag                     : No
Command line compressor         : C:\Program Files\FLAC\flac.exe
Additional command line options : -V -8 -T "Date=%year%" -T "Genre=%genre%" %source%
TOC of the extracted CD
     Track |   Start  |  Length  | Start sector | End sector
    ---------------------------------------------------------
        1  |  0:00.00 |  2:30.24 |         0    |    11273
        2  |  2:30.24 |  3:21.02 |     11274    |    26350
        3  |  5:51.26 |  3:11.16 |     26351    |    40691
        4  |  9:02.42 |  4:21.64 |     40692    |    60330
        5  | 13:24.31 |  3:22.58 |     60331    |    75538
        6  | 16:47.14 |  3:00.01 |     75539    |    89039
        7  | 19:47.15 |  2:50.40 |     89040    |   101829
        8  | 22:37.55 |  3:34.72 |    101830    |   117951
        9  | 26:12.52 |  3:38.21 |    117952    |   134322
       10  | 29:50.73 |  2:58.40 |    134323    |   147712
       11  | 32:49.38 |  1:46.69 |    147713    |   155731
       12  | 34:36.32 |  3:43.52 |    155732    |   172508
       13  | 38:20.09 |  5:05.31 |    172509    |   195414
       14  | 43:25.40 |  3:21.39 |    195415    |   210528
       15  | 46:47.04 |  4:09.23 |    210529    |   229226
       16  | 50:56.27 |  2:08.30 |    229227    |   238856
       17  | 53:04.57 |  3:25.47 |    238857    |   254278
       18  | 56:30.29 |  3:20.63 |    254279    |   269341
Range status and errors
Selected range
     Filename D:\32Crash - Y2112Y [Limited Edition](2011)\(Cd2) AD MMCXII\32Crash - AD MMCXII.wav
     Peak level 99.7 %
     Extraction speed 3.5 X
     Range quality 99.9 %
     Test CRC 5B1501B0
     Copy CRC 5B1501B0
     Copy OK
No errors occurred
AccurateRip summary
Track  1  not present in database
Track  2  not present in database
Track  3  not present in database
Track  4  not present in database
Track  5  not present in database
Track  6  not present in database
Track  7  not present in database
Track  8  not present in database
Track  9  not present in database
Track 10  not present in database
Track 11  not present in database
Track 12  not present in database
Track 13  not present in database
Track 14  not present in database
Track 15  not present in database
Track 16  not present in database
Track 17  not present in database
Track 18  not present in database
None of the tracks are present in the AccurateRip database
End of status report
==== Log checksum A2878474E7B95B1C6CCB18F4FE6D5E3BE1815DA51D7F9C5B859930AFFC35B992 ====
Раздача осуществляется исключительно в ознакомительных целях!
Всем, кому понравилось творчество 32Crash
, после ознакомления, советую приобрести лицензионный диск, и тем самым поддержать исполнителя !
Handing out is carried out only to get acquainted!
Everyone who likes to art 32Crash
, I advise to follow my example and buy a license legally CD, and thus support the artist!
Правила, инструкции, FAQ!!!
Торрент  Добавлен [26 июн 2020, 20:06] Скачать торрент Магнет ссылка
Скачать торрент
[ Размер 20.93 КБ / Просмотров 9 ]

Статус
Проверен 
 
Размер  992.86 МБ
Приватный: Нет (DHT включён)
.torrent скачан  0
 


     Отправить личное сообщение
   
Страница 1 из 1
Показать сообщения за:  Поле сортировки  
Начать новую тему Ответить на тему


Сейчас этот форум просматривают: нет зарегистрированных пользователей и гости: 0


Вы не можете начинать темы
Вы не можете отвечать на сообщения
Вы не можете редактировать свои сообщения
Вы не можете удалять свои сообщения
Вы не можете добавлять вложения

Перейти:  
cron