Начать новую тему Ответить на тему
Статистика раздачи
Размер: 757.14 МБ | Добавлен: 26 июн 2020, 17:08 | Скачали: 0
Сидеров: 0  [0 байт/сек]    Личеров: 0  [0 байт/сек]
Пред. тема | След. тема 

Автор
Сообщение

СообщениеДобавлено: 26 июн 2020, 17:08 

Ответить с цитатой 

32Crash - Weird News From An Uncertain Future [Limited Edition 2 x CD]
Жанр: EBM, Electro
Год выпуска диска: 2007
Производитель диска: Belgium
Аудио кодек: APE
Тип рипа: image+.cue
Битрейт аудио: lossless
Продолжительность: 00:52:54 + 00:54:48
Трэклист:
CD1:
01.Time to March On (D'Hooghe/Lemeire/De)
02.Dust and Drought (D'Hooghe/Lemeire/De)
03.Spacemen and Poets (Santy/D'Hooghe/Leme)
04.Slow Crash (D'Hooghe/Lemeire/De)
05.I Remember (Rev/Vega)
06.www.hide (D'Hooghe/Lemeire/De)
07.Merlin's Gun (D'Hooghe/Lemeire/De)
08.The War of All Against All (D'Hooghe/Lemeire/De)
09.Liquid Ice (D'Hooghe/Lemeire/De)
10.Herissons et Porcs-Epics (D'Hooghe/Lemeire/De)
11.Plutonian Breeders (D'Hooghe/Lemeire/De)
12.Let Me Enjoy (Hardy/D'Hooghe/Leme)
13.Planetarian Plant-Objects (D'Hooghe/Lemeire/De)
14.Propaganda (D'Hooghe/Lemeire/De)
15.Beware! (D'Hooghe/Lemeire/De)
16.Isomodia (D'Hooghe/Lemeire/De)
17.NTT (D'Hooghe/Lemeire/De)
18.Fast Crash (D'Hooghe/Lemeire/De)
19.A Last Shower (D'Hooghe/Lemeire/De)
CD2:
01. Anger (TIM SCHULDT Remix )
02. Propaganda (Machine Drama Mix By NID & SANCY)
03. Dust And Drought (THE PENELOPES Remix)
04. Merlin's Gun (Skydive By HELMUT KRAFT)
05. Isomodia (IMPLANT Remix)
06. Lone Ranger (PUNX SOUNDCHECK Remix)
07. Spaceman And Poets (DAVID CARRETTA Remix)
08. Isomodia (MILIMETRIC Remix)
09. Merlin's Gun (Warrior Mix By HELMUT KRAFT)
10. Slowcrash (LIFELIKE Remix)
11. HΘrissons Et Por-Epics (32CRASH Remix)
Код:
 Exact Audio Copy V0.99 prebeta 5 from 4. May 2009
Отчёт EAC об извлечении, выполненном 7. октября 2009, 9:23
32Crash / Weird News From An Uncertain Future
Дисковод: Optiarc DVD RW AD-7201S   Adapter: 1  ID: 1
Режим чтения                 : Достоверность
Использование точного потока : Да
Отключение кэша аудио        : Да
Использование указателей C2  : Нет
Коррекция смещения при чтении                     : 48
Способность читать области Lead-in и Lead-out     : Нет
Заполнение пропущенных сэмплов тишиной            : Да
Удаление блоков с тишиной в начале и конце        : Нет
При вычислениях CRC использовались нулевые сэмплы : Да
Интерфейс                                         : Установленный внешний ASPI-интерфейс
Выходной формат : Внутренние WAV-операции
Формат сэмплов  : 44.100 Гц; 16 бит; стерео
TOC извлечённого CD
     Трек |   Старт  | Длительность | Начальный сектор | Конечный сектор
    ---------------------------------------------------------------------
       1  |  0:00.00 |    1:10.16   |           0      |       5265
       2  |  1:10.16 |    2:47.17   |        5266      |      17807
       3  |  3:57.33 |    3:16.37   |       17808      |      32544
       4  |  7:13.70 |    3:32.42   |       32545      |      48486
       5  | 10:46.37 |    3:17.19   |       48487      |      63280
       6  | 14:03.56 |    3:21.50   |       63281      |      78405
       7  | 17:25.31 |    3:42.65   |       78406      |      95120
       8  | 21:08.21 |    3:32.39   |       95121      |     111059
       9  | 24:40.60 |    1:36.37   |      111060      |     118296
      10  | 26:17.22 |    3:14.35   |      118297      |     132881
      11  | 29:31.57 |    3:12.38   |      132882      |     147319
      12  | 32:44.20 |    3:40.32   |      147320      |     163851
      13  | 36:24.52 |    0:49.39   |      163852      |     167565
      14  | 37:14.16 |    2:46.65   |      167566      |     180080
      15  | 40:01.06 |    3:30.45   |      180081      |     195875
      16  | 43:31.51 |    3:12.05   |      195876      |     210280
      17  | 46:43.56 |    2:45.29   |      210281      |     222684
      18  | 49:29.10 |    2:36.03   |      222685      |     234387
      19  | 52:05.13 |    0:50.71   |      234388      |     238208
Характеристики диапазона извлечения и сообщения об ошибках
Выбранный диапазон
     Имя файла D:\Documents and Settings\Rodexx\Рабочий стол\32Crash-Weird News From An Uncertain Future\32Crash - Weird News From An Uncertain Future.wav
     Пиковый уровень 100.0 %
     Качество диапазона 100.0 %
     CRC теста FEBBD06B
     CRC копии FEBBD06B
     Копирование... OK
Ошибок не произошло
Конец отчёта
Код:
Exact Audio Copy V0.99 prebeta 5 from 4. May 2009
Отчёт EAC об извлечении, выполненном 7. октября 2009, 9:27
32Crash / Weird News From A Limited Future
Дисковод: Optiarc DVD RW AD-7201S   Adapter: 1  ID: 1
Режим чтения                 : Достоверность
Использование точного потока : Да
Отключение кэша аудио        : Да
Использование указателей C2  : Нет
Коррекция смещения при чтении                     : 48
Способность читать области Lead-in и Lead-out     : Нет
Заполнение пропущенных сэмплов тишиной            : Да
Удаление блоков с тишиной в начале и конце        : Нет
При вычислениях CRC использовались нулевые сэмплы : Да
Интерфейс                                         : Установленный внешний ASPI-интерфейс
Выходной формат : Внутренние WAV-операции
Формат сэмплов  : 44.100 Гц; 16 бит; стерео
TOC извлечённого CD
     Трек |   Старт  | Длительность | Начальный сектор | Конечный сектор
    ---------------------------------------------------------------------
       1  |  0:00.00 |    4:51.05   |           0      |      21829
       2  |  4:51.05 |    4:31.39   |       21830      |      42193
       3  |  9:22.44 |    4:58.31   |       42194      |      64574
       4  | 14:21.00 |    3:47.39   |       64575      |      81638
       5  | 18:08.39 |    4:24.22   |       81639      |     101460
       6  | 22:32.61 |    6:12.02   |      101461      |     129362
       7  | 28:44.63 |    5:30.02   |      129363      |     154114
       8  | 34:14.65 |    5:12.37   |      154115      |     177551
       9  | 39:27.27 |    5:23.61   |      177552      |     201837
      10  | 44:51.13 |    5:49.18   |      201838      |     228030
      11  | 50:40.31 |    4:09.37   |      228031      |     246742
Характеристики диапазона извлечения и сообщения об ошибках
Выбранный диапазон
     Имя файла D:\Documents and Settings\Rodexx\Рабочий стол\32Crash-Weird News From An Uncertain Future\32Crash - Weird News From A Limited Future.wav
     Пиковый уровень 100.0 %
     Качество диапазона 100.0 %
     CRC теста 8904CE04
     CRC копии 8904CE04
     Копирование... OK
Ошибок не произошло
Конец отчёта
 
Код:
 Started at: среда, 07. 10. 2009. - 9:46.43
2 files found
1 -===- D:\Documents and Settings\Rodexx\Рабочий стол\32Crash-Weird News From An Uncertain Future\32Crash - Weird News From A Limited Future.ape
  Extracted successfully
  Conclusion: this track is CDDA with probability 100%
  Tempfile successfully deleted.
2 -===- D:\Documents and Settings\Rodexx\Рабочий стол\32Crash-Weird News From An Uncertain Future\32Crash - Weird News From An Uncertain Future.ape
  Extracted successfully
  Conclusion: this track is CDDA with probability 100%
  Tempfile successfully deleted.
Finished at: среда, 07. 10. 2009. - 9:59.31 (operation time: 0:12.48)
Label:Alfa Matrix
Catalog#:AM-2099-DCD
Format:2 x CD, Album, Limited Edition
Country:Belgium
Released:2007
Genre:Electronic
Style:EBM, Electro
Правила, инструкции, FAQ!!!
Торрент  Добавлен [26 июн 2020, 17:08] Скачать торрент Магнет ссылка
Скачать торрент
[ Размер 16.1 КБ / Просмотров 4 ]

Статус
Проверен 
 
Размер  757.14 МБ
Приватный: Нет (DHT включён)
.torrent скачан  0
 


     Отправить личное сообщение
   
Страница 1 из 1
Показать сообщения за:  Поле сортировки  
Начать новую тему Ответить на тему


Сейчас этот форум просматривают: нет зарегистрированных пользователей и гости: 0


Вы не можете начинать темы
Вы не можете отвечать на сообщения
Вы не можете редактировать свои сообщения
Вы не можете удалять свои сообщения
Вы не можете добавлять вложения

Перейти:  
cron