Начать новую тему Ответить на тему
Статистика раздачи
Размер: 443.22 МБ | Добавлен: 26 июн 2020, 18:00 | Скачали: 0
Сидеров: 0  [0 байт/сек]    Личеров: 0  [0 байт/сек]
Пред. тема | След. тема 

Автор
Сообщение

СообщениеДобавлено: 26 июн 2020, 18:00 

Ответить с цитатой 

Dunkelwerk - Troops
Жанр: EBM
Год выпуска диска: 2005
Производитель диска: Belgium
Аудио кодек: APE
Тип рипа: image+.cue
Битрейт аудио: lossless
Продолжительность: 63:56
Трэклист:
1 4871 Nord / 4448 Ost (5:31)
2 Bastard (5:45)
3 Dresden (5:22)
4 Sternensoldat (5:33)
5 Hymn (6:25)
6 Underfire (Album) (4:37)
7 Die Sechste Armee (Uncut) (5:21)
8 Die Schwarzen Jahre (5:51)
9 Hope's Haven (Extended Version) (6:29)
10 Gegen Die Flak (Zum Abschied) (4:26)
11 Bastard (Remix By The Retrosic) (4:14)
Remix - Retrosic, The
12 Sternensoldat (Remix By Plastic Noise Experience) (4:17)
Remix - Plastic Noise Experience
Доп. информация: Alfa Matrix; AM-1062CD
Код:
Exact Audio Copy V0.99 prebeta 4 from 23. February 2008
EAC extraction logfile from 12. February 2009, 1:34
Dunkelwerk / Troops
Used drive  : PIONEER DVD-RW  DVR-215D   Adapter: 3  ID: 0
Read mode               : Secure
Utilize accurate stream : Yes
Defeat audio cache      : Yes
Make use of C2 pointers : No
Read offset correction                      : 48
Overread into Lead-In and Lead-Out          : No
Fill up missing offset samples with silence : Yes
Delete leading and trailing silent blocks   : No
Null samples used in CRC calculations       : Yes
Used interface                              : Installed external ASPI interface
Used output format : Internal WAV Routines
Sample format      : 44.100 Hz; 16 Bit; Stereo
TOC of the extracted CD
     Track |   Start  |  Length  | Start sector | End sector
    ---------------------------------------------------------
        1  |  0:00.00 |  5:31.00 |         0    |    24824
        2  |  5:31.00 |  5:45.69 |     24825    |    50768
        3  | 11:16.69 |  5:22.08 |     50769    |    74926
        4  | 16:39.02 |  5:33.68 |     74927    |    99969
        5  | 22:12.70 |  6:25.51 |     99970    |   128895
        6  | 28:38.46 |  4:37.04 |    128896    |   149674
        7  | 33:15.50 |  5:21.68 |    149675    |   173817
        8  | 38:37.43 |  5:51.59 |    173818    |   200201
        9  | 44:29.27 |  6:29.40 |    200202    |   229416
       10  | 50:58.67 |  4:26.09 |    229417    |   249375
       11  | 55:25.01 |  4:14.20 |    249376    |   268445
       12  | 59:39.21 |  4:17.36 |    268446    |   287756
Range status and errors
Selected range
   Filename E:\Dunkelwerk - Troops\CDImage.wav
   Peak level 100.0 %
   Range quality 100.0 %
   Test CRC C534914E
   Copy CRC C534914E
   Copy OK
No errors occurred
AccurateRip summary
Track  1  not present in database
Track  2  not present in database
Track  3  not present in database
Track  4  not present in database
Track  5  not present in database
Track  6  not present in database
Track  7  not present in database
Track  8  not present in database
Track  9  not present in database
Track 10  not present in database
Track 11  not present in database
Track 12  not present in database
None of the tracks are present in the AccurateRip database
End of status report
Код:
AUDIOCHECKER v2.0 beta (build 457) - by Dester - opdester@freemail.hu
~~~~~~~~~~~~~~~~~~~~~~~~~~~~~~~~~~
-=== DO NOT EDIT THIS FILE! ===-
Path: ...\Dunkelwerk - Troops
1 -=- CDImage.wav -=- CDDA (100%)
190127764
Понравилась раздача? Нажми на кнопочку "Спасибо", а также плюсони мне в репутацию
Правила, инструкции, FAQ!!!
Торрент  Добавлен [26 июн 2020, 18:00] Скачать торрент Магнет ссылка
Скачать торрент
[ Размер 18 КБ / Просмотров 11 ]

Статус
Проверен 
 
Размер  443.22 МБ
Приватный: Нет (DHT включён)
.torrent скачан  0
 


     Отправить личное сообщение
   
Страница 1 из 1
Показать сообщения за:  Поле сортировки  
Начать новую тему Ответить на тему


Сейчас этот форум просматривают: нет зарегистрированных пользователей и гости: 0


Вы не можете начинать темы
Вы не можете отвечать на сообщения
Вы не можете редактировать свои сообщения
Вы не можете удалять свои сообщения
Вы не можете добавлять вложения

Перейти:  
cron