Начать новую тему Ответить на тему
Статистика раздачи
Размер: 459.49 МБ | Добавлен: 26 июн 2020, 19:03 | Скачали: 0
Сидеров: 0  [0 байт/сек]    Личеров: 0  [0 байт/сек]
Пред. тема | След. тема 

Автор
Сообщение

СообщениеДобавлено: 26 июн 2020, 19:03 

Ответить с цитатой 

Deutsch Amerikanische Freundschaft (D.A.F., DAF)- Funfzehn Neue DAF Lieder
Жанр: EBM, Minimal

Страна-производитель диска: Germany
Год издания диска: 2003
Издатель (лейбл): Superstar Recordings
Номер по каталогу: 0670602
Страна: Germany
Аудио кодек: FLAC (*.flac)
Тип рипа: image+.cue
Битрейт аудио: lossless
Лог и кью-файл: Вшиты в контейнер
Продолжительность: [70:26]
Источник (релизер): Диск из личной коллекции
Наличие сканов в содержимом раздачи: да (300 dpi)
Треклист:

01.
[04:36] Der Sheriff - Anti-Amerikanisches Lied
02. [05:05] Ich Bin Tot - Romantisches Lied
03. [04:24] Du Bewegst Dich - Tanzlied
04. [03:40] Kinderzimmer - Heldenlied
05. [04:29] Rock Hoch - Sexlied
06. [04:02] Mira Como Se Menea - Spanisches Lied
07. [04:19] Satellit - Weltraumlied
08. [03:00] Moschino, Heckler & Koch - Ganovenlied
09. [04:14] Seltsame Freunde - Kriegslied
10. [04:05] Algorithmus - Zahlenlied
11. [04:10] Der Prasident - Erste Welt Lied
12. [06:01] Liebeszimmer - Hexenlied
13. [05:12] Komm In Meine Welt - Liebeslied
14. [04:07] Die Luge - Wahrheitslied
15. [09:04] Ich Bin Morgen Wieder Da - Abschiedslied
Код:
Exact Audio Copy V1.0 beta 1 from 15. November 2010
EAC extraction logfile from 17. December 2010, 4:09
Deutsch Amerikanische Freundschaft / Funfzehn Neue DAF Lieder
Used drive  : PLEXTOR DVDR   PX-880SA   Adapter: 1  ID: 1
Read mode               : Secure
Utilize accurate stream : Yes
Defeat audio cache      : Yes
Make use of C2 pointers : No
Read offset correction                      : 6
Overread into Lead-In and Lead-Out          : No
Fill up missing offset samples with silence : Yes
Delete leading and trailing silent blocks   : No
Null samples used in CRC calculations       : Yes
Used interface                              : Native Win32 interface for Win NT & 2000
Used output format              : User Defined Encoder
Selected bitrate                : 1024 kBit/s
Quality                         : High
Add ID3 tag                     : No
Command line compressor         : C:\FLAC\flac.exe
Additional command line options : -8 -V %s -o %d
TOC of the extracted CD
     Track |   Start  |  Length  | Start sector | End sector
    ---------------------------------------------------------
        1  |  0:00.00 |  4:36.18 |         0    |    20717
        2  |  4:36.18 |  5:04.63 |     20718    |    43580
        3  |  9:41.06 |  4:23.63 |     43581    |    63368
        4  | 14:04.69 |  3:40.21 |     63369    |    79889
        5  | 17:45.15 |  4:29.04 |     79890    |   100068
        6  | 22:14.19 |  4:01.41 |    100069    |   118184
        7  | 26:15.60 |  4:18.66 |    118185    |   137600
        8  | 30:34.51 |  2:59.40 |    137601    |   151065
        9  | 33:34.16 |  4:13.57 |    151066    |   170097
       10  | 37:47.73 |  4:05.32 |    170098    |   188504
       11  | 41:53.30 |  4:09.44 |    188505    |   207223
       12  | 46:02.74 |  6:00.55 |    207224    |   234278
       13  | 52:03.54 |  5:11.64 |    234279    |   257667
       14  | 57:15.43 |  4:07.21 |    257668    |   276213
       15  | 61:22.64 |  9:03.60 |    276214    |   316998
Range status and errors
Selected range
     Filename C:\Mysterons [Skull_of_Sheeps]\Deutsch Amerikanische Freundschaft [2003] Funfzehn Neue DAF Lieder (Superstar Recordings, 0670602)\Deutsch Amerikanische Freundschaft - Funfzehn Neue DAF Lieder.wav
     Peak level 99.9 %
     Extraction speed 1.1 X
     Range quality 100.0 %
     Test CRC A33C1AA1
     Copy CRC A33C1AA1
     Copy OK
No errors occurred
AccurateRip summary
Track  1  accurately ripped (confidence 17)  [6F09CAA6]
Track  2  accurately ripped (confidence 18)  [140E05DD]
Track  3  accurately ripped (confidence 18)  [54FFE308]
Track  4  accurately ripped (confidence 18)  [E403618C]
Track  5  accurately ripped (confidence 18)  [32A63F15]
Track  6  accurately ripped (confidence 18)  [CE748E0F]
Track  7  accurately ripped (confidence 18)  [F572E1E8]
Track  8  accurately ripped (confidence 18)  [04B9DC7B]
Track  9  accurately ripped (confidence 18)  [ABBE2053]
Track 10  accurately ripped (confidence 18)  [D50F5DCF]
Track 11  accurately ripped (confidence 18)  [35A75230]
Track 12  accurately ripped (confidence 18)  [F761A4F9]
Track 13  accurately ripped (confidence 18)  [26B7DB83]
Track 14  accurately ripped (confidence 18)  [36E04D1A]
Track 15  accurately ripped (confidence 18)  [FABFF8E4]
All tracks accurately ripped
End of status report
Код:
[Verification date: 17.12.2010 4:16:33]
[Disc ID: 0024181a-019995f5-e310820f]
Track [ CRC    ] Status
 01 [6f09caa6] (17/17) Accurately ripped as in pressing(s) #1
 02 [140e05dd] (18/18) Accurately ripped as in pressing(s) #1
 03 [54ffe308] (18/18) Accurately ripped as in pressing(s) #1
 04 [e403618c] (18/18) Accurately ripped as in pressing(s) #1
 05 [32a63f15] (18/18) Accurately ripped as in pressing(s) #1
 06 [ce748e0f] (18/18) Accurately ripped as in pressing(s) #1
 07 [f572e1e8] (18/18) Accurately ripped as in pressing(s) #1
 08 [04b9dc7b] (18/18) Accurately ripped as in pressing(s) #1
 09 [abbe2053] (18/18) Accurately ripped as in pressing(s) #1
 10 [d50f5dcf] (18/18) Accurately ripped as in pressing(s) #1
 11 [35a75230] (18/18) Accurately ripped as in pressing(s) #1
 12 [f761a4f9] (18/18) Accurately ripped as in pressing(s) #1
 13 [26b7db83] (18/18) Accurately ripped as in pressing(s) #1
 14 [36e04d1a] (18/18) Accurately ripped as in pressing(s) #1
 15 [fabff8e4] (18/18) Accurately ripped as in pressing(s) #1
Track [ CRC32  ] [W/O NULL] [  LOG   ]
 -- [A33C1AA1] [0F8CE55D]   CRC32
 01 [58185F83] [D29345DB]
 02 [A543CE46] [54022385]
 03 [0DABB322] [76D28845]
 04 [8EFCF3DA] [874E0E29]
 05 [DA67C0B8] [5AE8CB4A]
 06 [8C472A20] [EEAA4FCD]
 07 [0743E918] [A1B45326]
 08 [BC297916] [393027FE]
 09 [2BD526AB] [8EF90360]
 10 [688A795E] [E8F46443]
 11 [23077D5C] [5314ACDE]
 12 [3F9555BD] [2DAD9FB9]
 13 [2B1A644A] [883D41ED]
 14 [209D1134] [7C8071BA]
 15 [21BC4A5A] [6A4AE9EB]

Цитата:
Цитата:
[/spoiler]
Правила, инструкции, FAQ!!!
Торрент  Добавлен [26 июн 2020, 19:03] Скачать торрент Магнет ссылка
Скачать торрент
[ Размер 19.75 КБ / Просмотров 11 ]

Статус
Проверен 
 
Размер  459.49 МБ
Приватный: Нет (DHT включён)
.torrent скачан  0
 


     Отправить личное сообщение
   
Страница 1 из 1
Показать сообщения за:  Поле сортировки  
Начать новую тему Ответить на тему


Сейчас этот форум просматривают: нет зарегистрированных пользователей и гости: 0


Вы не можете начинать темы
Вы не можете отвечать на сообщения
Вы не можете редактировать свои сообщения
Вы не можете удалять свои сообщения
Вы не можете добавлять вложения

Перейти:  
cron