Начать новую тему Ответить на тему
Статистика раздачи
Размер: 505.96 МБ | Добавлен: 26 июн 2020, 21:00 | Скачали: 0
Сидеров: 0  [0 байт/сек]    Личеров: 0  [0 байт/сек]
Пред. тема | След. тема 

Автор
Сообщение

СообщениеДобавлено: 26 июн 2020, 21:00 

Ответить с цитатой 

Project Pitchfork / Continuum Ride [Digipak Edition]
Жанр: EBM, Darkwave
Страна-производитель диска: Germany
Год издания диска: 2010
Издатель (лейбл): [Trisol] Music Group GmbH
Номер по каталогу: TRI 404 CD
Страна: Germany
Аудио кодек: FLAC (*.flac)
Тип рипа: image+.cue
Битрейт аудио: lossless
Продолжительность: 01:04:20
Источник (релизер): Рип с личного СД
Наличие сканов в содержимом раздачи: да
Треклист:
01. Way Of The World
02. Stacked Visions
03. The Dividing Line
04. Endless Infinity
05. Dead Cities
06. Continuum
07. Beholder
08. Ghosts Of The Past
09. Supersonic Snakebite
10. Star Child
11. 43rd Floor
12. Full Contact
Код:
Exact Audio Copy V0.99 prebeta 5 from 4. May 2009
Отчёт EAC об извлечении, выполненном 1. ноября 2010, 0:12
Project Pitchfork / Continuum Ride
Дисковод: Optiarc DVD RW AD-7201S   Adapter: 2  ID: 1
Режим чтения                 : Достоверность
Использование точного потока : Да
Отключение кэша аудио        : Да
Использование указателей C2  : Нет
Коррекция смещения при чтении                     : 48
Способность читать области Lead-in и Lead-out     : Нет
Заполнение пропущенных сэмплов тишиной            : Да
Удаление блоков с тишиной в начале и конце        : Нет
При вычислениях CRC использовались нулевые сэмплы : Да
Интерфейс                                         : Встроенный Win32-интерфейс для Win
NT/2000
Выходной формат : Внутренние WAV-операции
Формат сэмплов  : 44.100 Гц; 16 бит; стерео
TOC извлечённого CD
     Трек |   Старт  | Длительность | Начальный сектор | Конечный сектор
    ---------------------------------------------------------------------
       1  |  0:00.00 |    6:23.44   |           0      |      28768
       2  |  6:23.44 |    4:54.14   |       28769      |      50832
       3  | 11:17.58 |    5:02.20   |       50833      |      73502
       4  | 16:20.03 |    4:23.20   |       73503      |      93247
       5  | 20:43.23 |    5:07.02   |       93248      |     116274
       6  | 25:50.25 |    4:58.68   |      116275      |     138692
       7  | 30:49.18 |    4:34.44   |      138693      |     159286
       8  | 35:23.62 |    4:12.39   |      159287      |     178225
       9  | 39:36.26 |    4:56.05   |      178226      |     200430
      10  | 44:32.31 |    4:24.47   |      200431      |     220277
      11  | 48:57.03 |    5:36.61   |      220278      |     245538
      12  | 54:33.64 |    9:46.23   |      245539      |     289511
Характеристики диапазона извлечения и сообщения об ошибках
Выбранный диапазон
     Имя файла D:\Раздачи\Project Pitchfork - Continuum Ride\Project Pitchfork -
Continuum Ride.wav
     Пиковый уровень 100.0 %
     Качество диапазона 100.0 %
     CRC теста 7E7FE091
     CRC копии 7E7FE091
     Копирование... OK
Ошибок не произошло
Конец отчёта
Код:
Started at: понедельник, 01. 11. 2010. - 0:20.18
1 file found
1 -===- D:\Раздачи\Project Pitchfork - Continuum Ride\Project Pitchfork - Continuum Ride.flac
  Extracted successfully
  Conclusion: this track is CDDA with probability 100%
  Tempfile successfully deleted.
Finished at: понедельник, 01. 11. 2010. - 0:27.34 (operation time: 0:07.15)
Правила, инструкции, FAQ!!!
Торрент  Добавлен [26 июн 2020, 21:00] Скачать торрент Магнет ссылка
Скачать торрент
[ Размер 20.85 КБ / Просмотров 4 ]

Статус
Проверен 
 
Размер  505.96 МБ
Приватный: Нет (DHT включён)
.torrent скачан  0
 


     Отправить личное сообщение
   
Страница 1 из 1
Показать сообщения за:  Поле сортировки  
Начать новую тему Ответить на тему


Сейчас этот форум просматривают: нет зарегистрированных пользователей и гости: 0


Вы не можете начинать темы
Вы не можете отвечать на сообщения
Вы не можете редактировать свои сообщения
Вы не можете удалять свои сообщения
Вы не можете добавлять вложения

Перейти:  
cron