Начать новую тему Ответить на тему
Статистика раздачи
Размер: 185.17 МБ | Добавлен: 26 июн 2020, 16:52 | Скачали: 0
Сидеров: 0  [0 байт/сек]    Личеров: 0  [0 байт/сек]
Пред. тема | След. тема 

Автор
Сообщение

СообщениеДобавлено: 26 июн 2020, 16:52 

Ответить с цитатой 

Darkmen / Guilty E.P.
Жанр: EBM, Electro
Страна-производитель диска: Belgium
Год издания: 2009
Издатель (лейбл): Machineries Of Joy
Номер по каталогу: MEN001
Формат: CD, Maxi-Single
Аудиокодек: FLAC (*.flac)
Тип рипа: image+.cue
Битрейт аудио: lossless
Продолжительность: 0:22:32.38
Источник (релизер): Физический носитель (Собственный рип с оригинала).
Наличие сканов в содержимом раздачи: да
Треклист:
01. Stop The Machine (Transmission Edition) [2:10]
02. No Future (Transmission Edition) [2:13]
03. Stop The Machine (Backfire Mix) [3:14]
04. No Future (Angst Vor Der Zukunft) [2:14]
05. Stop The Machine (Ionic Machines Take Over) [3:45]
06. No Future (No More Pain Mix) [2:28]
07. Stop The Machine (Detune Mix) [3:35]
08. No Future (Was Ist Die Wirklichkeit) [2:55]
Код:
Exact Audio Copy V1.0 beta 3 from 29. August 2011
EAC extraction logfile from 27. May 2012, 18:18
Darkmen / Guilty E.P.
Used drive  : PLEXTOR BDDVDR PX-B320SA   Adapter: 3  ID: 1
Read mode               : Secure
Utilize accurate stream : Yes
Defeat audio cache      : Yes
Make use of C2 pointers : No
Read offset correction                      : 6
Overread into Lead-In and Lead-Out          : No
Fill up missing offset samples with silence : Yes
Delete leading and trailing silent blocks   : No
Null samples used in CRC calculations       : Yes
Used interface                              : Installed external ASPI interface
Used output format              : User Defined Encoder
Selected bitrate                : 128 kBit/s
Quality                         : High
Add ID3 tag                     : No
Command line compressor         : C:\Program Files (x86)\FLAC\flac.exe
Additional command line options : -V -8 -T "Date=%year%" -T "Genre=%genre%" %source%
TOC of the extracted CD
     Track |   Start  |  Length  | Start sector | End sector
    ---------------------------------------------------------
        1  |  0:00.00 |  2:09.51 |         0    |     9725
        2  |  2:09.51 |  2:12.70 |      9726    |    19695
        3  |  4:22.46 |  3:13.49 |     19696    |    34219
        4  |  7:36.20 |  2:13.57 |     34220    |    44251
        5  |  9:50.02 |  3:44.53 |     44252    |    61104
        6  | 13:34.55 |  2:27.72 |     61105    |    72201
        7  | 16:02.52 |  3:35.23 |     72202    |    88349
        8  | 19:38.00 |  2:54.38 |     88350    |   101437
Range status and errors
Selected range
     Filename D:\Darkmen - Guilty E.P. (2009)\Darkmen - Guilty E.P..wav
     Peak level 96.6 %
     Extraction speed 3.0 X
     Range quality 100.0 %
     Test CRC CA3FBC76
     Copy CRC CA3FBC76
     Copy OK
No errors occurred
AccurateRip summary
Track  1  not present in database
Track  2  not present in database
Track  3  not present in database
Track  4  not present in database
Track  5  not present in database
Track  6  not present in database
Track  7  not present in database
Track  8  not present in database
None of the tracks are present in the AccurateRip database
End of status report
==== Log checksum F25139DD46E9949107D3C2D25272932929AD20D1CAAB75591807B94D877C2E49 ====
Правила, инструкции, FAQ!!!
Торрент  Добавлен [26 июн 2020, 16:52] Скачать торрент Магнет ссылка
Скачать торрент
[ Размер 15.32 КБ / Просмотров 3 ]

Статус
Проверен 
 
Размер  185.17 МБ
Приватный: Нет (DHT включён)
.torrent скачан  0
 


     Отправить личное сообщение
   
Страница 1 из 1
Показать сообщения за:  Поле сортировки  
Начать новую тему Ответить на тему


Сейчас этот форум просматривают: нет зарегистрированных пользователей и гости: 0


Вы не можете начинать темы
Вы не можете отвечать на сообщения
Вы не можете редактировать свои сообщения
Вы не можете удалять свои сообщения
Вы не можете добавлять вложения

Перейти:  
cron