Начать новую тему Ответить на тему
Статистика раздачи
Размер: 558.64 МБ | Добавлен: 26 июн 2020, 20:29 | Скачали: 0
Сидеров: 0  [0 байт/сек]    Личеров: 0  [0 байт/сек]
Пред. тема | След. тема 

Автор
Сообщение

СообщениеДобавлено: 26 июн 2020, 20:29 

Ответить с цитатой 

Deadjump / Animus Necandi
Жанр: EBM, DarkElectro
Страна-производитель диска: Hungary
Год издания: 2009
Издатель (лейбл): Advoxya Records
Номер по каталогу: AD-HUN-33-CD
Страна: Brazil
Аудиокодек: FLAC (*.flac)
Тип рипа: image+.cue
Битрейт аудио: lossless
Продолжительность: 1:03:36
Источник (релизер): kergarn
Наличие сканов в содержимом раздачи: да
Треклист:
1. First Act: Satan Is Ever Present Among Us [3:28]
02. Alma Mater [6:30]
03. Class Eyes [5:15]
04. Animus Necandi [4:30]
05. The Cave Of The Dead [4:24]
06. Mothers Ready To Die [5:08]
07. Hate [6:16]
08. Code 666 [3:43]
09. Access [5:24]
10. Erotic Industrial Music [5:52]
11. Animus Necandi (Acylum remix) [4:17]
12. Raped Soul (Club mix) [4:32]
13. Animus Necandi (Larva remix) [4:18]
Рип с фирменного CD.
Код:
Exact Audio Copy V1.0 beta 3 from 29. August 2011
Отчёт EAC об извлечении, выполненном 24. ноября 2012, 14:03
Deadjump / Animus Necandi
Дисковод: _NEC    DVD_RW ND-3520A   Adapter: 0  ID: 1
Режим чтения                 : Достоверность
Использование точного потока : Да
Отключение кэша аудио        : Да
Использование указателей C2  : Нет
Коррекция смещения при чтении                     : 48
Способность читать области Lead-in и Lead-out     : Нет
Заполнение пропущенных сэмплов тишиной            : Да
Удаление блоков с тишиной в начале и конце        : Нет
При вычислениях CRC использовались нулевые сэмплы : Да
Интерфейс                                         : Установленный внешний ASPI-интерфейс
Выходной формат          : Пользовательский кодировщик
Выбранный битрейт        : 1024 kBit/s
Качество                 : Высокий
Добавление ID3-тега      : Нет
Утилита сжатия           : C:\Program Files\Exact Audio Copy\Flac\flac.exe
Дополнительные параметры : -6 -V -T "Date=%year%" -T "Genre=%genre%" %source%
TOC извлечённого CD
     Трек |   Старт  | Длительность | Начальный сектор | Конечный сектор
    ---------------------------------------------------------------------
       1  |  0:00.00 |    3:28.31   |           0      |      15630
       2  |  3:28.31 |    6:29.46   |       15631      |      44851
       3  |  9:58.02 |    5:14.46   |       44852      |      68447
       4  | 15:12.48 |    4:29.41   |       68448      |      88663
       5  | 19:42.14 |    4:24.14   |       88664      |     108477
       6  | 24:06.28 |    5:08.08   |      108478      |     131585
       7  | 29:14.36 |    6:16.29   |      131586      |     159814
       8  | 35:30.65 |    3:42.69   |      159815      |     176533
       9  | 39:13.59 |    5:24.09   |      176534      |     200842
      10  | 44:37.68 |    5:51.72   |      200843      |     227239
      11  | 50:29.65 |    4:17.21   |      227240      |     246535
      12  | 54:47.11 |    4:31.56   |      246536      |     266916
      13  | 59:18.67 |    4:17.41   |      266917      |     286232
Характеристики диапазона извлечения и сообщения об ошибках
Выбранный диапазон
     Имя файла C:\Deadjump - Animus Necandi.wav
     Пиковый уровень 100.0 %
     Скорость извлечения 6.2 X
     Качество диапазона 99.9 %
     CRC теста 52A277F1
     CRC копии 52A277F1
     Копирование... OK
Ошибок не произошло
AccurateRip: сводка
Трек  1  : извлечено точно (доверие 1)  [11408EED]  (AR v1)
Трек  2  : извлечено точно (доверие 1)  [9CED76AF]  (AR v1)
Трек  3  : извлечено точно (доверие 1)  [98876816]  (AR v1)
Трек  4  : извлечено точно (доверие 1)  [38AD6A62]  (AR v1)
Трек  5  : извлечено точно (доверие 1)  [DEE158F2]  (AR v1)
Трек  6  : извлечено точно (доверие 1)  [E97B1329]  (AR v1)
Трек  7  : извлечено точно (доверие 1)  [810ACB5C]  (AR v1)
Трек  8  : извлечено точно (доверие 1)  [A9129D18]  (AR v1)
Трек  9  : извлечено точно (доверие 1)  [D72E10FA]  (AR v1)
Трек 10  : извлечено точно (доверие 1)  [50D70682]  (AR v1)
Трек 11  : извлечено точно (доверие 1)  [C4624DF1]  (AR v1)
Трек 12  : извлечено точно (доверие 1)  [9B9E7939]  (AR v1)
Трек 13  : извлечено точно (доверие 1)  [D819FD71]  (AR v1)
Все треки извлечены точно
Код:
REM GENRE "EBM / dark electro"
REM DATE 2009
REM DISCID A50EE80D
REM COMMENT "ExactAudioCopy v1.0b3"
PERFORMER "Deadjump"
TITLE "Animus Necandi"
FILE "Deadjump - Animus Necandi.flac" WAVE
  TRACK 01 AUDIO
    TITLE "First Act: Satan Is Ever Present Among Us"
    PERFORMER "Deadjump"
    ISRC 000000000000
    INDEX 01 00:00:00
  TRACK 02 AUDIO
    TITLE "Alma Mater"
    PERFORMER "Deadjump"
    ISRC 000000000000
    INDEX 00 03:26:15
    INDEX 01 03:28:31
  TRACK 03 AUDIO
    TITLE "Class Eyes"
    PERFORMER "Deadjump"
    ISRC 000000000000
    INDEX 00 09:55:62
    INDEX 01 09:58:02
  TRACK 04 AUDIO
    TITLE "Animus Necandi"
    PERFORMER "Deadjump"
    ISRC 000000000000
    INDEX 00 15:10:03
    INDEX 01 15:12:48
  TRACK 05 AUDIO
    TITLE "The Cave Of The Dead"
    PERFORMER "Deadjump"
    ISRC 000000000000
    INDEX 00 19:39:58
    INDEX 01 19:42:14
  TRACK 06 AUDIO
    TITLE "Mothers Ready To Die"
    PERFORMER "Deadjump"
    ISRC 000000000000
    INDEX 00 24:03:56
    INDEX 01 24:06:28
  TRACK 07 AUDIO
    TITLE "Hate"
    PERFORMER "Deadjump"
    ISRC 000000000000
    INDEX 00 29:12:11
    INDEX 01 29:14:36
  TRACK 08 AUDIO
    TITLE "Code 666"
    PERFORMER "Deadjump"
    ISRC 000000000000
    INDEX 00 35:28:02
    INDEX 01 35:30:65
  TRACK 09 AUDIO
    TITLE "Access"
    PERFORMER "Deadjump"
    ISRC 000000000000
    INDEX 00 39:11:49
    INDEX 01 39:13:59
  TRACK 10 AUDIO
    TITLE "Erotic Industrial Music"
    PERFORMER "Deadjump"
    ISRC 000000000000
    INDEX 00 44:35:03
    INDEX 01 44:37:68
  TRACK 11 AUDIO
    TITLE "Animus Necandi (Acylum remix)"
    PERFORMER "Deadjump"
    ISRC 000000000000
    INDEX 00 50:27:39
    INDEX 01 50:29:65
  TRACK 12 AUDIO
    TITLE "Raped Soul (Club mix)"
    PERFORMER "Deadjump"
    ISRC 000000000000
    INDEX 00 54:44:46
    INDEX 01 54:47:11
  TRACK 13 AUDIO
    TITLE "Animus Necandi (Larva remix)"
    PERFORMER "Deadjump"
    ISRC 000000000000
    INDEX 00 59:15:71
    INDEX 01 59:18:67
Правила, инструкции, FAQ!!!
Торрент  Добавлен [26 июн 2020, 20:29] Скачать торрент Магнет ссылка
Скачать торрент
[ Размер 11.88 КБ / Просмотров 7 ]

Статус
Проверен 
 
Размер  558.64 МБ
Приватный: Нет (DHT включён)
.torrent скачан  0
 


     Отправить личное сообщение
   
Страница 1 из 1
Показать сообщения за:  Поле сортировки  
Начать новую тему Ответить на тему


Сейчас этот форум просматривают: нет зарегистрированных пользователей и гости: 0


Вы не можете начинать темы
Вы не можете отвечать на сообщения
Вы не можете редактировать свои сообщения
Вы не можете удалять свои сообщения
Вы не можете добавлять вложения

Перейти:  
cron