Начать новую тему Ответить на тему
Статистика раздачи
Размер: 553.19 МБ | Добавлен: 26 июн 2020, 17:13 | Скачали: 0
Сидеров: 0  [0 байт/сек]    Личеров: 0  [0 байт/сек]
Пред. тема | След. тема 

Автор
Сообщение

СообщениеДобавлено: 26 июн 2020, 17:13 

Ответить с цитатой 

Adeonesis / The Rite of Our Cross
Жанр: EBM, DarkElectro
Страна-производитель диска: Hungary
Год издания: 2012
Издатель (лейбл): Advoxya Records
Номер по каталогу: AD-HUN-70-CD
Страна: Bolivia
Аудиокодек: FLAC (*.flac)
Тип рипа: image+.cue
Битрейт аудио: lossless
Продолжительность: 1:12:46
Источник (релизер): собственный рип с фирменного CD
Наличие сканов в содержимом раздачи: нет
Треклист:
01. Entrance 3:53
02. Christ Filled With Falsehoods 4:45
03. Lost Illusions 5:01
04. Your Mercy False 4:42
05. Mi Final 4:25
06. Sin Heart Breaking 4:28
07. Hell Without You 5:29
08. I Want to Die 4:20
09. My Wounds Bled 4:51
10. Evil 2:40
11. Help Me 5:09
12. Silence Screams 4:28
13. Blood in Your Cross 4:33
14. Cries 4:29
15. Nothing Remains 4:48
16. Hugging My Sins (Nohycit vs Adeonesis) 4:43
Код:
Exact Audio Copy V1.0 beta 3 from 29. August 2011
EAC extraction logfile from 3. January 2013, 19:29
ADEONESIS / THE RITE OF OUR CROSS
Used drive  : Optiarc DVD RW AD-5200S   Adapter: 1  ID: 0
Read mode               : Secure
Utilize accurate stream : Yes
Defeat audio cache      : Yes
Make use of C2 pointers : No
Read offset correction                      : 48
Overread into Lead-In and Lead-Out          : No
Fill up missing offset samples with silence : Yes
Delete leading and trailing silent blocks   : No
Null samples used in CRC calculations       : Yes
Used interface                              : Native Win32 interface for Win NT & 2000
Used output format              : User Defined Encoder
Selected bitrate                : 128 kBit/s
Quality                         : High
Add ID3 tag                     : No
Command line compressor         : C:\Program Files\FLAC\flac.exe
Additional command line options : -V -8 -T "Date=%year%" -T "Genre=%genre%" %source%
TOC of the extracted CD
     Track |   Start  |  Length  | Start sector | End sector
    ---------------------------------------------------------
        1  |  0:00.00 |  3:53.06 |         0    |    17480
        2  |  3:53.06 |  4:44.61 |     17481    |    38841
        3  |  8:37.67 |  5:01.21 |     38842    |    61437
        4  | 13:39.13 |  4:42.01 |     61438    |    82588
        5  | 18:21.14 |  4:25.03 |     82589    |   102466
        6  | 22:46.17 |  4:27.66 |    102467    |   122557
        7  | 27:14.08 |  5:29.60 |    122558    |   147292
        8  | 32:43.68 |  4:20.25 |    147293    |   166817
        9  | 37:04.18 |  4:50.53 |    166818    |   188620
       10  | 41:54.71 |  2:40.28 |    188621    |   200648
       11  | 44:35.24 |  5:09.21 |    200649    |   223844
       12  | 49:44.45 |  4:28.04 |    223845    |   243948
       13  | 54:12.49 |  4:33.48 |    243949    |   264471
       14  | 58:46.22 |  4:28.67 |    264472    |   284638
       15  | 63:15.14 |  4:48.39 |    284639    |   306277
       16  | 68:03.53 |  4:42.51 |    306278    |   327478
Range status and errors
Selected range
     Filename G:\Rips\AD\ADEONESIS - THE RITE OF OUR CROSS.wav
     Peak level 98.8 %
     Extraction speed 4.3 X
     Range quality 100.0 %
     Test CRC BC4F6511
     Copy CRC BC4F6511
     Copy OK
No errors occurred
End of status report
==== Log checksum 3C85BF8AFE070FBDB3E62E4BA967C41B4DE617D9DC5E435DD6579722EA9481B4 ====
Код:
REM GENRE DarkElectro
REM DATE 2012
REM DISCID F6110E10
REM COMMENT "ExactAudioCopy v1.0b3"
PERFORMER "ADEONESIS"
TITLE "THE RITE OF OUR CROSS"
FILE "ADEONESIS - THE RITE OF OUR CROSS.flac" WAVE
  TRACK 01 AUDIO
    TITLE "Entrance"
    PERFORMER "ADEONESIS"
    INDEX 01 00:00:00
  TRACK 02 AUDIO
    TITLE "Christ filled with  falsehoods"
    PERFORMER "ADEONESIS"
    INDEX 01 03:53:06
  TRACK 03 AUDIO
    TITLE "Lost illusions"
    PERFORMER "ADEONESIS"
    INDEX 01 08:37:67
  TRACK 04 AUDIO
    TITLE "Your mercy false"
    PERFORMER "ADEONESIS"
    INDEX 01 13:39:13
  TRACK 05 AUDIO
    TITLE "Mi final"
    PERFORMER "ADEONESIS"
    INDEX 01 18:21:14
  TRACK 06 AUDIO
    TITLE "Sin heart breaking"
    PERFORMER "ADEONESIS"
    INDEX 01 22:46:17
  TRACK 07 AUDIO
    TITLE "Hell without you"
    PERFORMER "ADEONESIS"
    INDEX 01 27:14:08
  TRACK 08 AUDIO
    TITLE "I want to die"
    PERFORMER "ADEONESIS"
    INDEX 01 32:43:68
  TRACK 09 AUDIO
    TITLE "My wounds bled"
    PERFORMER "ADEONESIS"
    INDEX 01 37:04:18
  TRACK 10 AUDIO
    TITLE "Evil"
    PERFORMER "ADEONESIS"
    INDEX 01 41:54:71
  TRACK 11 AUDIO
    TITLE "Help me"
    PERFORMER "ADEONESIS"
    INDEX 01 44:35:24
  TRACK 12 AUDIO
    TITLE "Silence screams"
    PERFORMER "ADEONESIS"
    INDEX 01 49:44:45
  TRACK 13 AUDIO
    TITLE "Blood in your cross"
    PERFORMER "ADEONESIS"
    INDEX 01 54:12:49
  TRACK 14 AUDIO
    TITLE "Cries"
    PERFORMER "ADEONESIS"
    INDEX 01 58:46:22
  TRACK 15 AUDIO
    TITLE "Nothing Remains"
    PERFORMER "ADEONESIS"
    INDEX 01 63:15:14
  TRACK 16 AUDIO
    TITLE "Hugging my sins ( Nohycit Vs Adeonesis )"
    PERFORMER "ADEONESIS"
    INDEX 01 68:03:53


Правила, инструкции, FAQ!!!
Торрент  Добавлен [26 июн 2020, 17:13] Скачать торрент Магнет ссылка
Скачать торрент
[ Размер 11.58 КБ / Просмотров 3 ]

Статус
Проверен 
 
Размер  553.19 МБ
Приватный: Нет (DHT включён)
.torrent скачан  0
 


     Отправить личное сообщение
   
Страница 1 из 1
Показать сообщения за:  Поле сортировки  
Начать новую тему Ответить на тему


Сейчас этот форум просматривают: нет зарегистрированных пользователей и гости: 0


Вы не можете начинать темы
Вы не можете отвечать на сообщения
Вы не можете редактировать свои сообщения
Вы не можете удалять свои сообщения
Вы не можете добавлять вложения

Перейти:  
cron