Начать новую тему Ответить на тему
Статистика раздачи
Размер: 509.28 МБ | Добавлен: 26 июн 2020, 17:05 | Скачали: 0
Сидеров: 0  [0 байт/сек]    Личеров: 0  [0 байт/сек]
Пред. тема | След. тема 

Автор
Сообщение

СообщениеДобавлено: 26 июн 2020, 17:05 

Ответить с цитатой 

Various Artists - We Came To Dance Vol.1
Жанр: EBM,Dark Wave
Год выпуска диска: 1993
Производитель диска: Germany
Аудио кодек: FLAC
Тип рипа: image+.cue
Битрейт аудио: lossless
Продолжительность: 76min
Трэклист:
1. Birmingham 6 - Israel (05.51)
2. Dance Or Die - Psychoburbia (04.30)
3. Love Is Colder Than Dead - Wild World (04.20)
4. Forthcoming Fire - Youth On Fire (04.14)
5. The Eternal Afflict - We Lebanon You (03.50)
6. Project Pichfork - The Abeyance (05.37)
7. Atrocity Exhibition - Everlasting Gloves (02.37)
8. Escape With Romeo - Lullaby (03.42)
9. X Marks The Pedwalk - Paranoid Illusions (04.10)
10. Sequence Of Life - Love (03.35)
11. Love Like Blood - Walking In Demimondes (04.47)
12. Panic On The Titanic - Major Tom (03.51)
13. Leather Strip - I Am Your Conscience (04.42)
14. Deine Lakaien - My Decision (06.04)
15. Dorsetshire - Herzschlag (04.44)
16. Das Ich - Sonne, Mond Und Sterne (08.35)
Доп. информация: Диск мой. Сканы внутри.
Exact Audio Copy V0.99 prebeta 5 from 4. May 2009
Отчёт EAC об извлечении, выполненном 9. сентября 2009, 21:07
Dark Wave & Electro-Compilation / We Came To Dance
Дисковод: TSSTcorpCD/DVDW SH-S182M Adapter: 0 ID: 0
Режим чтения : Достоверность
Использование точного потока : Да
Отключение кэша аудио : Да
Использование указателей C2 : Нет
Коррекция смещения при чтении : 6
Способность читать области Lead-in и Lead-out : Нет
Заполнение пропущенных сэмплов тишиной : Да
Удаление блоков с тишиной в начале и конце : Нет
При вычислениях CRC использовались нулевые сэмплы : Да
Интерфейс : Встроенный Win32-интерфейс для Win NT/2000
Выходной формат : Пользовательский кодировщик
Выбранный битрейт : 768 kBit/s
Качество : Высокий
Добавление ID3-тэга : Нет
Утилита сжатия : C:\Program Files\Exact Audio Copy\FLAC\FLAC.EXE
Дополнительные параметры : -6 -V -T "ARTIST=%a" -T "TITLE=%t" -T "ALBUM=%g" -T "DATE=%y" -T "TRACKNUMBER=%n" -T "GENRE=%m" -T "COMMENT=%e" %s -o %d
TOC извлечённого CD
Трек | Старт | Длительность | Начальный сектор | Конечный сектор
---------------------------------------------------------------------
1 | 0:00.00 | 5:51.12 | 0 | 26336
2 | 5:51.12 | 4:30.20 | 26337 | 46606
3 | 10:21.32 | 4:20.35 | 46607 | 66141
4 | 14:41.67 | 4:14.00 | 66142 | 85191
5 | 18:55.67 | 3:50.48 | 85192 | 102489
6 | 22:46.40 | 5:37.52 | 102490 | 127816
7 | 28:24.17 | 2:37.55 | 127817 | 139646
8 | 31:01.72 | 3:42.43 | 139647 | 156339
9 | 34:44.40 | 4:10.02 | 156340 | 175091
10 | 38:54.42 | 3:35.38 | 175092 | 191254
11 | 42:30.05 | 4:47.45 | 191255 | 212824
12 | 47:17.50 | 3:51.62 | 212825 | 230211
13 | 51:09.37 | 4:42.73 | 230212 | 251434
14 | 55:52.35 | 6:04.52 | 251435 | 278786
15 | 61:57.12 | 4:44.58 | 278787 | 300144
16 | 66:41.70 | 8:35.45 | 300145 | 338814
Характеристики диапазона извлечения и сообщения об ошибках
Выбранный диапазон
Имя файла I:\Моя музыка\v set\1993 We Came To Dance Indie-Dancefloor Vol.1\Dark Wave & Electro-Compilation - We Came To Dance.wav
Пиковый уровень 97.7 %
Качество диапазона 100.0 %
CRC теста 0A479E19
CRC копии 0A479E19
Копирование... OK
Ошибок не произошло
AccurateRip: сводка
Трек 1 нет в базе данных
Трек 2 нет в базе данных
Трек 3 нет в базе данных
Трек 4 нет в базе данных
Трек 5 нет в базе данных
Трек 6 нет в базе данных
Трек 7 нет в базе данных
Трек 8 нет в базе данных
Трек 9 нет в базе данных
Трек 10 нет в базе данных
Трек 11 нет в базе данных
Трек 12 нет в базе данных
Трек 13 нет в базе данных
Трек 14 нет в базе данных
Трек 15 нет в базе данных
Трек 16 нет в базе данных
Ни одного трека нет в базе AccurateRip
Конец отчёта
Правила, инструкции, FAQ!!!
Торрент  Добавлен [26 июн 2020, 17:05] Скачать торрент Магнет ссылка
Скачать торрент
[ Размер 20.73 КБ / Просмотров 2 ]

Статус
Проверен 
 
Размер  509.28 МБ
Приватный: Нет (DHT включён)
.torrent скачан  0
 


     Отправить личное сообщение
   
Страница 1 из 1
Показать сообщения за:  Поле сортировки  
Начать новую тему Ответить на тему


Сейчас этот форум просматривают: нет зарегистрированных пользователей и гости: 0


Вы не можете начинать темы
Вы не можете отвечать на сообщения
Вы не можете редактировать свои сообщения
Вы не можете удалять свои сообщения
Вы не можете добавлять вложения

Перейти:  
cron